西西电影论坛

 找回密码
 立即注册

小丑回魂2 It.Chapter.Two.2019.1080p.BluRay.x264-DRONES 12.04GB

[复制链接]

电影下载 发表于 2019-12-9 13:16:15 | 显示全部楼层 |阅读模式
帖子完整标题:小丑回魂2 It.Chapter.Two.2019.1080p.BluRay.x264-DRONES 12.04GB




◎译  名 小丑回魂2 / It 2 / 它:第二章(台)
◎片  名 It: Chapter Two
◎年  代 2019
◎产  地 美国
◎类  别 恐怖
◎语  言 英语
◎上映日期 2019-09-06(美国)
◎片  长 169分钟
◎导  演 安德斯·穆斯切蒂 Andrés Muschietti
◎编  剧 加里·多伯曼 Gary Dauberman / 斯蒂芬·金 Stephen King
◎主  演 詹姆斯·麦卡沃伊 James McAvoy
       杰西卡·查斯坦 Jessica Chastain
       比尔·斯卡斯加德 Bill Skarsg?rd
       比尔·哈德尔 Bill Hader
       索菲娅·莉莉丝 Sophia Lillis
       杰克·迪伦·格雷泽 Jack Dylan Grazer
       菲恩·伍法德 Finn Wolfhard
       杰登·马泰尔 Jaeden Martell
       特洛伊·詹姆斯 Troy James
       哈维尔·博泰特 Javier Botet
       杰·瑞恩 Jay Ryan
       斯蒂芬·金 Stephen King
       杰克逊·罗伯特·斯科特 Jackson Robert Scott
       杰里米·雷·泰勒 Jeremy Ray Taylor
       泽维尔·多兰 Xavier Dolan
       杰克·威利 Jake Weary
       尼古拉斯·汉密尔顿 Nicholas Hamilton
       杰丝·威克斯勒 Jess Weixler
       詹姆斯·兰索恩 James Ransone
       瓦耶特·奥莱夫 Wyatt Oleff
       欧文·泰格 Owen Teague
       艾赛亚·穆斯塔法 Isaiah Mustafa
       安迪·比恩 Andy Bean
       蒂奇·格兰特 Teach Grant
       泰勒·飞瑞 Taylor Frey
       贾森·福克斯 Jason Fuchs
       乔森·雅各布 Chosen Jacobs
       斯蒂夫·博加尔特 Stephen Bogaert
       洛根·汤普森 Logan Thompson
       杰克·辛 Jake Sim
       维尔·贝布林克 Will Beinbrink
       安东尼·尤埃西 Anthony Ulc


◎标  签 恐怖 | 惊悚 | 美国 | 2019 | 小说改编 | 超自然 | 经典 | 小丑

◎简  介  

  故事发生在1989年夏季事件的27年后,失败者俱乐部成员已经长大并搬走了,直到一个不详的电话把他们召回缅因州的德利镇,对抗他们古老、会变形的敌人—跳舞小丑潘尼怀斯。
Video
ID                                       : 1
Format                                   : AVC
Format settings                          : CABAC / 5 Ref Frames
Format settings, CABAC                   : Yes
Format settings, Reference frames        : 5 frames
Codec ID                                 : V_MPEG4/ISO/AVC
Duration                                 : 2 h 49 min
Bit rate                                 : 9 520 kb/s
Width                                    : 1 920 pixels
Height                                   : 808 pixels
Display aspect ratio                     : 2.40:1
Frame rate mode                          : Constant
Frame rate                               : 23.976 (24000/1001) FPS
Color space                              : YUV
Chroma subsampling                       : 4:2:0
Bit depth                                : 8 bits
Scan type                                : Progressive
Bits/(Pixel*Frame)                       : 0.256
Stream size                              : 11.3 GiB (94%)
Writing library                          : x264 core 158 r2988 7817004
Encoding settings                        : cabac=1 / ref=5 / deblock=1:-3:-3 / analyse=0x3:0x113 / me=umh / subme=8 / psy=1 / psy_rd=1.00:0.00 / mixed_ref=1 / me_range=16 / chroma_me=1 / trellis=1 / 8x8dct=1 / cqm=0 / deadzone=21,11 / fast_pskip=1 / chroma_qp_offset=-2 / threads=25 / lookahead_threads=4 / sliced_threads=0 / nr=0 / decimate=1 / interlaced=0 / bluray_compat=0 / constrained_intra=0 / bframes=3 / b_pyramid=2 / b_adapt=1 / b_bias=0 / direct=3 / weightb=1 / open_gop=0 / weightp=2 / keyint=250 / keyint_min=23 / scenecut=40 / intra_refresh=0 / rc_lookahead=50 / rc=2pass / mbtree=1 / bitrate=9520 / ratetol=1.0 / qcomp=0.60 / qpmin=0 / qpmax=69 / qpstep=4 / cplxblur=20.0 / qblur=0.5 / ip_ratio=1.40 / aq=1:1.00
Language                                 : English
Default                                  : Yes
Forced                                   : No

Audio
ID                                       : 2
Format                                   : AC-3
Format/Info                              : Audio Coding 3
Commercial name                          : Dolby Digital
Codec ID                                 : A_AC3
Duration                                 : 2 h 49 min
Bit rate mode                            : Constant
Bit rate                                 : 640 kb/s
Channel(s)                               : 6 channels
Channel layout                           : L R C LFE Ls Rs
Sampling rate                            : 48.0 kHz
Frame rate                               : 31.250 FPS (1536 SPF)
Bit depth                                : 16 bits
Compression mode                         : Lossy
Stream size                              : 776 MiB (6%)
Language                                 : English
Service kind                             : Complete Main
Default                                  : Yes
Forced                                   : No



                                                                                                                                                                                                        
                                                                                                                                                                                                                                                                                                                                                                                                                                                                                                                                                                                                                                                                                                                                                                                                                                                      
7b33178e23db1f6a51643a687d956f61.torrent (61.06 KB)

回复

使用道具 举报

小黑屋|西西电影论坛 ( 闽ICP备160050789号-1 )

所有资源来自网络采集,如果侵犯了您的权益,请发邮件至 [email protected],立即清除相关链接

GMT+8, 2020-1-19 18:48 , Processed in 1.098094 second(s), 27 queries .

Powered by Discuz! X3.2

© 2001-2013 Comsenz Inc.

快速回复 返回顶部 返回列表