西西电影论坛

 找回密码
 立即注册

第一滴血5:最后的血 Rambo.Last.Blood.2019.1080p.BluRay.x264.DTS-HD.MA....

[复制链接]

电影下载 发表于 2019-12-9 13:16:15 | 显示全部楼层 |阅读模式
帖子完整标题:第一滴血5:最后的血 Rambo.Last.Blood.2019.1080p.BluRay.x264.DTS-HD.MA.7.1-FGT 7.30GB




◎译  名 第一滴血5:最后的血 / Rambo 5 / Rambo 5: Last Blood / Rambo V / Rambo V: Last Blood / 兰博5:最后一滴血 / 第一滴血5 / 第一滴血:最后一战 / 第一滴血:终极血战(港) / 蓝波:最后一滴血(台)
◎片  名 Rambo: Last Blood
◎年  代 2019
◎产  地 美国
◎类  别 动作 / 惊悚 / 冒险
◎语  言 英语
◎上映日期 2019-09-20(美国)
◎IMDb评分  6.7/10 from 23992 users
◎片  长 89分钟
◎导  演 阿德里安·格鲁伯格 Adrian Grunberg
◎编  剧 马修·西鲁尼克 Matthew Cirulnick / 大卫·莫瑞尔 David Morrell / 西尔维斯特·史泰龙 Sylvester Stallone
◎主  演 西尔维斯特·史泰龙 Sylvester Stallone
       帕斯·贝加 Paz Vega
       路易·曼迪勒 Louis Mandylor
       奥斯卡·贾恩那达 óscar Jaenada
       维特·蒙雷尔 Yvette Monreal
       华金·科西奥 Joaquín Cosio
       杰西卡·马德森 Jessica Madsen
       艾德里安娜·巴拉扎 Adriana Barraza
       塞尔吉奥·佩里斯-门切塔 Sergio Peris-Mencheta
       阿塔纳斯·斯雷布雷夫 Atanas Srebrev
       尼克·威特曼 Nick Wittman


◎标  签 动作 | 硬汉 | 美国 | 经典 | 暴力 | 战争 | 血腥 | 2019

◎简  介  

  西尔维斯特·史泰龙回归[第一滴血5],并有望执导。除主演外,据悉史泰龙将操刀剧本,故事围绕兰博为营救朋友之女与墨西哥毒枭展开殊死搏斗展开。制片艾威·勒纳([敢死队]系列)。该系列首部于1982年上映,2008年史泰龙曾自导自演[第一滴血4]。[第一滴血5]将在本届戛纳电影节预售,9月开拍。
Video
ID                                       : 1
Format                                   : AVC
Format/Info                              : Advanced Video Codec
Format settings                          : CABAC / 5 Ref Frames
Format settings, CABAC                   : Yes
Format settings, Reference frames        : 5 frames
Codec ID                                 : V_MPEG4/ISO/AVC
Duration                                 : 1 h 29 min
Bit rate                                 : 8 096 kb/s
Width                                    : 1 920 pixels
Height                                   : 808 pixels
Display aspect ratio                     : 2.40:1
Frame rate mode                          : Constant
Frame rate                               : 23.976 (24000/1001) FPS
Color space                              : YUV
Chroma subsampling                       : 4:2:0
Bit depth                                : 8 bits
Scan type                                : Progressive
Bits/(Pixel*Frame)                       : 0.218
Stream size                              : 5.05 GiB (69%)
Title                                    : Rambo.Last.Blood.2019.1080p.BluRay.x264.DTS-HD.MA.7.1-FGT
Writing library                          : x264 core 157 r2969 d4099dd
Encoding settings                        : cabac=1 / ref=5 / deblock=1:0:0 / analyse=0x3:0x113 / me=umh / subme=8 / psy=1 / psy_rd=1.00:0.00 / mixed_ref=1 / me_range=16 / chroma_me=1 / trellis=1 / 8x8dct=1 / cqm=0 / deadzone=21,11 / fast_pskip=1 / chroma_qp_offset=-2 / threads=16 / lookahead_threads=2 / sliced_threads=0 / nr=0 / decimate=1 / interlaced=0 / bluray_compat=0 / constrained_intra=0 / bframes=3 / b_pyramid=2 / b_adapt=2 / b_bias=0 / direct=3 / weightb=1 / open_gop=0 / weightp=2 / keyint=240 / keyint_min=23 / scenecut=40 / intra_refresh=0 / rc_lookahead=50 / rc=2pass / mbtree=1 / bitrate=8096 / ratetol=1.0 / qcomp=0.60 / qpmin=0 / qpmax=69 / qpstep=4 / cplxblur=20.0 / qblur=0.5 / ip_ratio=1.40 / aq=1:1.00
Language                                 : English
Default                                  : Yes
Forced                                   : No

Audio
ID                                       : 2
Format                                   : DTS XLL
Format/Info                              : Digital Theater Systems
Commercial name                          : DTS-HD Master Audio
Codec ID                                 : A_DTS
Duration                                 : 1 h 29 min
Bit rate mode                            : Variable
Bit rate                                 : 3 591 kb/s
Channel(s)                               : 8 channels
Channel layout                           : C L R LFE Lb Rb Lss Rss
Sampling rate                            : 48.0 kHz
Frame rate                               : 93.750 FPS (512 SPF)
Bit depth                                : 24 bits
Compression mode                         : Lossless
Stream size                              : 2.24 GiB (31%)
Title                                    : Rambo.Last.Blood.2019.1080p.BluRay.x264.DTS-HD.MA.7.1-FGT
Language                                 : English
Default                                  : Yes
Forced                                   : No

Text #1
ID                                       : 3
Format                                   : UTF-8
Codec ID                                 : S_TEXT/UTF8
Codec ID/Info                            : UTF-8 Plain Text
Duration                                 : 1 h 17 min
Bit rate                                 : 26 b/s
Count of elements                        : 563
Stream size                              : 15.3 KiB (0%)
Title                                    : English-SRT
Language                                 : English
Default                                  : Yes
Forced                                   : No

Text #2
ID                                       : 4
Format                                   : UTF-8
Codec ID                                 : S_TEXT/UTF8
Codec ID/Info                            : UTF-8 Plain Text
Duration                                 : 1 h 18 min
Bit rate                                 : 37 b/s
Count of elements                        : 834
Stream size                              : 21.2 KiB (0%)
Title                                    : English-SDH-SRT
Language                                 : English
Default                                  : No
Forced                                   : No

Text #3
ID                                       : 5
Format                                   : PGS
Muxing mode                              : zlib
Codec ID                                 : S_HDMV/PGS
Codec ID/Info                            : Picture based subtitle format used on BDs/HD-DVDs
Duration                                 : 1 h 18 min
Bit rate                                 : 27.0 kb/s
Count of elements                        : 1683
Stream size                              : 15.1 MiB (0%)
Title                                    : English-PGS
Language                                 : English
Default                                  : No
Forced                                   : No

Menu
00:00:00.000                             : :Chapter 01
00:04:50.081                             : :Chapter 02
00:10:59.158                             : :Chapter 03
00:14:35.791                             : :Chapter 04
00:22:39.024                             : :Chapter 05
00:25:11.718                             : :Chapter 06
00:31:24.382                             : :Chapter 07
00:36:12.253                             : :Chapter 08
00:41:08.299                             : :Chapter 09
00:46:37.878                             : :Chapter 10
00:49:29.967                             : :Chapter 11
00:55:04.926                             : :Chapter 12
01:00:08.229                             : :Chapter 13
01:05:57.495                             : :Chapter 14
01:12:06.280                             : :Chapter 15
01:17:47.287                             : :Chapter 16



                                                                                                                                                                                                        
                                                                                                                                                                                                                                                                                                                                                                                                                                                                                                                                                                                                                                                                                                                                                                                                                                                      
e3f7501395441190b38b822104ae3926.torrent (37.06 KB)

回复

使用道具 举报

小黑屋|西西电影论坛 ( 闽ICP备160050789号-1 )

所有资源来自网络采集,如果侵犯了您的权益,请发邮件至 [email protected],立即清除相关链接

GMT+8, 2020-1-19 18:19 , Processed in 0.130051 second(s), 27 queries .

Powered by Discuz! X3.2

© 2001-2013 Comsenz Inc.

快速回复 返回顶部 返回列表