西西电影论坛

 找回密码
 立即注册

权力的游戏:最后的守夜人/权力的游戏:最后的守夜 Game.of.Th...

[复制链接]

电影下载 发表于 2019-12-9 13:16:15 | 显示全部楼层 |阅读模式
帖子完整标题:权力的游戏:最后的守夜人/权力的游戏:最后的守夜 Game.of.Thrones.The.Last.Watch.2019.1080p.BluRay.x264-GUACAMOLE 7.64GB




◎译  名 权力的游戏:最后的守夜人 / 权力的游戏:最后的守夜
◎片  名 Game of Thrones: The Last Watch
◎年  代 2019
◎产  地 美国
◎类  别 纪录片
◎语  言 英语
◎上映日期 2019-05-26(美国)
◎IMDb评分  7.3/10 from 4874 users
◎片  长 114分钟
◎导  演 杰尼·芬利 Jeanie Finlay
◎主  演 戴维·贝尼奥夫 David Benioff
       D·B·威斯 D.B. Weiss
       艾米莉亚·克拉克 Emilia Clarke
       基特·哈灵顿 Kit Harington
       苏菲·特纳 Sophie Turner
       麦茜·威廉姆斯 Maisie Williams
       阿尔菲·艾伦 Alfie Allen
       彼特·丁拉基 Peter Dinklage
       雅各布·安德森 Jacob Anderson
       琳娜·海蒂 Lena Headey
       贝尔纳黛特·考菲尔德 Bernadette Caulfield
       格温多兰·克里斯蒂 Gwendoline Christie
       尼古拉·科斯特-瓦尔道 Nikolaj Coster-Waldau
       利亚姆·坎宁安 Liam Cunningham
       娜塔莉·伊曼纽尔 Nathalie Emmanuel
       弗拉基米尔·弗迪克 Vladimir Furdik
       伊恩·格雷 Iain Glen
       康勒斯·希尔 Conleth Hill
       克里斯托弗·海维尤 Kristofer Hivju
       罗伊·麦克凯恩 Rory McCann
       大卫·努特尔 David Nutter


◎标  签 纪录片 | 权力的游戏 | HBO | 美国 | 2019 | 冰与火之歌 | GOT | 史诗

◎简  介  

  HBO将推出《权力的游戏》纪录片[权力的游戏:最后的守夜人](Game of Thrones: The Last Watch,暂译),杰尼·芬利(Jeanie Finlay)执导。影片将跟随剧组与演员,见证《权力的游戏》最终季的拍摄过程。该纪录片时长2小时,5月19日登陆HBO。
Video
ID                                       : 1
Format                                   : AVC
Format settings                          : CABAC / 4 Ref Frames
Format settings, CABAC                   : Yes
Format settings, Reference frames        : 4 frames
Codec ID                                 : V_MPEG4/ISO/AVC
Duration                                 : 1 h 53 min
Bit rate                                 : 9 405 kb/s
Width                                    : 1 920 pixels
Height                                   : 1 080 pixels
Display aspect ratio                     : 16:9
Frame rate mode                          : Constant
Frame rate                               : 23.976 (24000/1001) FPS
Color space                              : YUV
Chroma subsampling                       : 4:2:0
Bit depth                                : 8 bits
Scan type                                : Progressive
Bits/(Pixel*Frame)                       : 0.189
Stream size                              : 7.42 GiB (97%)
Writing library                          : x264 core 158 r2988 7817004
Encoding settings                        : cabac=1 / ref=4 / deblock=1:0:0 / analyse=0x3:0x113 / me=umh / subme=8 / psy=1 / psy_rd=1.00:0.00 / mixed_ref=1 / me_range=16 / chroma_me=1 / trellis=2 / 8x8dct=1 / cqm=0 / deadzone=21,11 / fast_pskip=0 / chroma_qp_offset=-2 / threads=24 / lookahead_threads=4 / sliced_threads=0 / nr=0 / decimate=1 / interlaced=0 / bluray_compat=0 / constrained_intra=0 / bframes=3 / b_pyramid=2 / b_adapt=1 / b_bias=0 / direct=1 / weightb=1 / open_gop=0 / weightp=2 / keyint=250 / keyint_min=23 / scenecut=40 / intra_refresh=0 / rc_lookahead=50 / rc=2pass / mbtree=1 / bitrate=9405 / ratetol=1.0 / qcomp=0.60 / qpmin=0 / qpmax=69 / qpstep=4 / cplxblur=20.0 / qblur=0.5 / ip_ratio=1.40 / aq=1:1.00
Default                                  : Yes
Forced                                   : No

Audio
ID                                       : 2
Format                                   : AC-3
Format/Info                              : Audio Coding 3
Commercial name                          : Dolby Digital
Codec ID                                 : A_AC3
Duration                                 : 1 h 53 min
Bit rate mode                            : Constant
Bit rate                                 : 256 kb/s
Channel(s)                               : 2 channels
Channel layout                           : L R
Sampling rate                            : 48.0 kHz
Frame rate                               : 31.250 FPS (1536 SPF)
Bit depth                                : 16 bits
Compression mode                         : Lossy
Stream size                              : 207 MiB (3%)
Language                                 : English
Service kind                             : Complete Main
Default                                  : Yes
Forced                                   : No

Menu
00:00:00.000                             : :Kapitel 01
00:01:28.713                             : :Kapitel 02
00:09:28.818                             : :Kapitel 03
00:17:53.781                             : :Kapitel 04
00:26:30.171                             : :Kapitel 05
00:34:19.932                             : :Kapitel 06
00:42:58.701                             : :Kapitel 07
00:50:25.522                             : :Kapitel 08
00:57:29.696                             : :Kapitel 09
01:05:49.320                             : :Kapitel 10
01:12:57.164                             : :Kapitel 11
01:22:21.561                             : :Kapitel 12
01:32:20.284                             : :Kapitel 13
01:43:08.765                             : :Kapitel 14
01:51:18.672                             : :Kapitel 15



                                                                                                                                                                                                        
                                                                                                                                                                                                                                                                                                                                                                                                                                                                                                                                                                                                                                                                                                                                                                                                                                                      

b16489176ee516a57fba84bfb4abeb1c.torrent (38.98 KB)

回复

使用道具 举报

小黑屋|西西电影论坛 ( 闽ICP备160050789号-1 )

所有资源来自网络采集,如果侵犯了您的权益,请发邮件至 [email protected],立即清除相关链接

GMT+8, 2020-8-11 21:39 , Processed in 0.109410 second(s), 27 queries .

Powered by Discuz! X3.2

© 2001-2013 Comsenz Inc.

快速回复 返回顶部 返回列表