西西电影论坛

 找回密码
 立即注册

杀手/紐約洗錢 Killerman.2019.1080p.BluRay.x264.TrueHD.5.1-FGT 11.32GB

[复制链接]

电影下载 发表于 2019-12-12 11:02:27 | 显示全部楼层 |阅读模式
帖子完整标题:杀手/紐約洗錢 Killerman.2019.1080p.BluRay.x264.TrueHD.5.1-FGT 11.32GB




◎译  名 杀手 / 紐約洗錢
◎片  名 Killerman
◎年  代 2019
◎产  地 美国
◎类  别 动作
◎语  言 英语
◎上映日期 2019-08-30(美国)
◎IMDb评分  5.0/10 from 407 users
◎片  长 112分钟
◎导  演 马利克·贝德 Malik Bader
◎编  剧 马利克·贝德 Malik Bader
◎主  演 利亚姆·海姆斯沃斯 Liam Hemsworth
       黛安·格雷罗 Diane Guerrero
       苏利芒·西尔·萨瓦内 Souleymane Sy Savane
       Nickola Shreli
       Pepi Streiff


◎标  签 犯罪 | 美国电影 | 利亚姆·海姆斯沃斯 | 美国 | 想买 | 惊悚 | 2010s

◎简  介  

  戴安娜·格雷罗(《女子监狱》《处女情缘》)加盟利亚姆·海姆斯沃斯主演动作惊悚片《杀手》(Killerman),饰演锤弟妻子。讲述一个三流洗钱者Moe在参与一场交易时出现严重意外,遭受健忘症。该片由Malik Bader(《请付现金》《街头盗贼》)执导并编剧,目前正在拍摄中。
Video
ID                                       : 1
Format                                   : AVC
Format/Info                              : Advanced Video Codec
Format settings                          : CABAC / 5 Ref Frames
Format settings, CABAC                   : Yes
Format settings, Reference frames        : 5 frames
Codec ID                                 : V_MPEG4/ISO/AVC
Duration                                 : 1 h 52 min
Bit rate                                 : 10.5 Mb/s
Width                                    : 1 920 pixels
Height                                   : 808 pixels
Display aspect ratio                     : 2.40:1
Frame rate mode                          : Constant
Frame rate                               : 23.976 (24000/1001) FPS
Color space                              : YUV
Chroma subsampling                       : 4:2:0
Bit depth                                : 8 bits
Scan type                                : Progressive
Bits/(Pixel*Frame)                       : 0.282
Stream size                              : 8.24 GiB (73%)
Title                                    : Killerman.2019.1080p.BluRay.x264.TrueHD.5.1-FGT
Writing library                          : x264 core 158 r2988 7817004
Encoding settings                        : cabac=1 / ref=5 / deblock=1:-3:-3 / analyse=0x3:0x113 / me=umh / subme=8 / psy=1 / psy_rd=1.00:0.00 / mixed_ref=1 / me_range=32 / chroma_me=1 / trellis=2 / 8x8dct=1 / cqm=0 / deadzone=21,11 / fast_pskip=1 / chroma_qp_offset=-2 / threads=25 / lookahead_threads=4 / sliced_threads=0 / nr=0 / decimate=1 / interlaced=0 / bluray_compat=0 / constrained_intra=0 / bframes=3 / b_pyramid=2 / b_adapt=2 / b_bias=0 / direct=3 / weightb=1 / open_gop=0 / weightp=2 / keyint=240 / keyint_min=24 / scenecut=40 / intra_refresh=0 / rc_lookahead=50 / rc=2pass / mbtree=1 / bitrate=10489 / ratetol=1.0 / qcomp=0.60 / qpmin=0 / qpmax=69 / qpstep=4 / cplxblur=20.0 / qblur=0.5 / ip_ratio=1.40 / aq=3:0.80
Default                                  : Yes
Forced                                   : No

Audio #1
ID                                       : 2
Format                                   : MLP FBA
Format/Info                              : Meridian Lossless Packing FBA
Commercial name                          : Dolby TrueHD
Codec ID                                 : A_TRUEHD
Duration                                 : 1 h 52 min
Bit rate mode                            : Variable
Bit rate                                 : 3 197 kb/s
Maximum bit rate                         : 4 833 kb/s
Channel(s)                               : 6 channels
Channel layout                           : L R C LFE Ls Rs
Sampling rate                            : 48.0 kHz
Frame rate                               : 1 200.000 FPS (40 SPF)
Compression mode                         : Lossless
Stream size                              : 2.51 GiB (22%)
Title                                    : Killerman.2019.1080p.BluRay.x264.TrueHD.5.1-FGT
Language                                 : English
Default                                  : Yes
Forced                                   : No

Audio #2
ID                                       : 3
Format                                   : AC-3
Format/Info                              : Audio Coding 3
Commercial name                          : Dolby Digital
Codec ID                                 : A_AC3
Duration                                 : 1 h 52 min
Bit rate mode                            : Constant
Bit rate                                 : 640 kb/s
Channel(s)                               : 6 channels
Channel layout                           : L R C LFE Ls Rs
Sampling rate                            : 48.0 kHz
Frame rate                               : 31.250 FPS (1536 SPF)
Bit depth                                : 16 bits
Compression mode                         : Lossy
Stream size                              : 515 MiB (4%)
Title                                    : Killerman.2019.1080p.BluRay.x264.TrueHD.5.1-FGT
Language                                 : English
Service kind                             : Complete Main
Default                                  : No
Forced                                   : No

Text #1
ID                                       : 4
Format                                   : UTF-8
Codec ID                                 : S_TEXT/UTF8
Codec ID/Info                            : UTF-8 Plain Text
Duration                                 : 1 h 41 min
Bit rate                                 : 41 b/s
Count of elements                        : 1187
Stream size                              : 31.1 KiB (0%)
Title                                    : English-SRT
Language                                 : English
Default                                  : Yes
Forced                                   : No

Text #2
ID                                       : 5
Format                                   : UTF-8
Codec ID                                 : S_TEXT/UTF8
Codec ID/Info                            : UTF-8 Plain Text
Duration                                 : 1 h 46 min
Bit rate                                 : 44 b/s
Count of elements                        : 1358
Stream size                              : 34.3 KiB (0%)
Title                                    : English-SDH-SRT
Language                                 : English
Default                                  : No
Forced                                   : No

Text #3
ID                                       : 6
Format                                   : PGS
Muxing mode                              : zlib
Codec ID                                 : S_HDMV/PGS
Codec ID/Info                            : Picture based subtitle format used on BDs/HD-DVDs
Duration                                 : 1 h 46 min
Bit rate                                 : 21.5 kb/s
Count of elements                        : 2716
Stream size                              : 16.3 MiB (0%)
Title                                    : English-PGS
Language                                 : English
Default                                  : No
Forced                                   : No

Text #4
ID                                       : 7
Format                                   : PGS
Muxing mode                              : zlib
Codec ID                                 : S_HDMV/PGS
Codec ID/Info                            : Picture based subtitle format used on BDs/HD-DVDs
Duration                                 : 1 h 51 min
Bit rate                                 : 23.2 kb/s
Count of elements                        : 2588
Stream size                              : 18.5 MiB (0%)
Title                                    : French-PGS
Language                                 : French
Default                                  : No
Forced                                   : No

Menu
00:00:00.000                             : en:Chapter 01
00:15:39.688                             : en:Chapter 02
00:29:56.961                             : en:Chapter 03
00:44:29.875                             : en:Chapter 04
00:59:33.528                             : en:Chapter 05
01:13:39.665                             : en:Chapter 06
01:28:43.109                             : en:Chapter 07
01:46:18.038                             : en:Chapter 08



                                                                                                                                                                                                        
                                                                                                                                                                                                                                                                                                                                                                                                                                                                                                                                                                                                                                                                                                                                                                                                                                                      
ead498719fd6e0897ce8955b3464c8c7.torrent (57.12 KB)

回复

使用道具 举报

小黑屋|西西电影论坛 ( 闽ICP备160050789号-1 )

所有资源来自网络采集,如果侵犯了您的权益,请发邮件至 [email protected],立即清除相关链接

GMT+8, 2020-8-11 20:53 , Processed in 0.158032 second(s), 27 queries .

Powered by Discuz! X3.2

© 2001-2013 Comsenz Inc.

快速回复 返回顶部 返回列表