西西电影论坛

 找回密码
 立即注册

阴曹使者 The.Divine.Fury.2019.KOREAN.1080p.BluRay.x264.DTS-CHD 15.13GB

[复制链接]

电影下载 发表于 2019-12-13 11:18:14 | 显示全部楼层 |阅读模式
帖子完整标题:阴曹使者 The.Divine.Fury.2019.KOREAN.1080p.BluRay.x264.DTS-CHD 15.13GB




◎译  名 阴曹使者 / The Divine Fury / 使者 / 驱魔使者(港 / 台)
◎片  名 ??
◎年  代 2019
◎产  地 韩国
◎类  别 动作 / 恐怖
◎语  言 韩语
◎上映日期 2019-07-31(韩国)
◎IMDb评分  6.2/10 from 814 users
◎片  长 129分钟
◎导  演 金周焕 Kim Joo-Hwan
◎编  剧 金周焕 Kim Joo-Hwan
◎主  演 朴叙俊 Seo-Jun Park
       安圣基 Sung-kee Ahn
       禹棹焕 Woo Do-hwan
       朴智炫 Ji-hyun Park
       郑志薰 Jung Ji-hoon
       李胜熙 Seung-hee Lee
       沈熙燮 Hee-seop Sim
       崔宇植 Woo-Sik Choi


◎标  签 韩国 | 驱魔 | 宗教 | 灵异 | 恐怖 | 2019 | 动作 | 奇幻

◎简  介  

  《阴曹使者》讲述死神来到阳间发生的故事,同时是一部带有超自然元素的惊悚动作片。失去父亲的格斗选手勇厚(朴叙俊 饰)在遇到祭司安神父(安胜基 饰)后,与扰乱世界的邪恶死神展开了决斗。
Video
ID                                       : 1
Format                                   : AVC
Format/Info                              : Advanced Video Codec
Format settings                          : CABAC / 4 Ref Frames
Format settings, CABAC                   : Yes
Format settings, Reference frames        : 4 frames
Codec ID                                 : V_MPEG4/ISO/AVC
Duration                                 : 2 h 9 min
Bit rate                                 : 15.3 Mb/s
Width                                    : 1 920 pixels
Height                                   : 804 pixels
Display aspect ratio                     : 2.40:1
Frame rate mode                          : Constant
Frame rate                               : 24.000 FPS
Color space                              : YUV
Chroma subsampling                       : 4:2:0
Bit depth                                : 8 bits
Scan type                                : Progressive
Bits/(Pixel*Frame)                       : 0.412
Stream size                              : 13.8 GiB (91%)
Writing library                          : x264 core 157 r2867+150 7e91e0e t_mod_Custom_2 [1 X86_64]
Encoding settings                        : cabac=1 / ref=4 / deblock=1:-3:-3 / analyse=0x3:0x133 / me=umh / subme=11 / psy=1 / fade_compensate=0.00 / psy_rd=0.90:0.10 / mixed_ref=1 / me_range=64 / chroma_me=1 / trellis=2 / 8x8dct=1 / cqm=0 / deadzone=21,11 / fast_pskip=0 / chroma_qp_offset=-4 / threads=25 / lookahead_threads=4 / sliced_threads=0 / nr=0 / decimate=1 / interlaced=0 / bluray_compat=0 / constrained_intra=0 / fgo=0 / bframes=8 / b_pyramid=2 / b_adapt=2 / b_bias=0 / direct=3 / weightb=1 / open_gop=0 / weightp=2 / keyint=250 / keyint_min=24 / scenecut=40 / intra_refresh=0 / rc_lookahead=60 / rc=crf / mbtree=0 / crf=18.0000 / qcomp=0.70 / qpmin=0:0:0 / qpmax=69:69:69 / qpstep=4 / vbv_maxrate=35000 / vbv_bufsize=35000 / crf_max=0.0 / nal_hrd=none / filler=0 / ip_ratio=1.40 / pb_ratio=1.30 / aq=3:1.00 / aq-sensitivity=10.00 / aq-factor=1.00:1.00:1.00 / aq2=0 / aq3=0
Language                                 : Korean
Default                                  : Yes
Forced                                   : No

Audio
ID                                       : 2
Format                                   : DTS
Format/Info                              : Digital Theater Systems
Codec ID                                 : A_DTS
Duration                                 : 2 h 9 min
Bit rate mode                            : Constant
Bit rate                                 : 1 509 kb/s
Channel(s)                               : 6 channels
Channel layout                           : C L R Ls Rs LFE
Sampling rate                            : 48.0 kHz
Frame rate                               : 93.750 FPS (512 SPF)
Bit depth                                : 16 bits
Compression mode                         : Lossy
Stream size                              : 1.36 GiB (9%)
Language                                 : Korean
Default                                  : Yes
Forced                                   : No

Text
ID                                       : 3
Format                                   : UTF-8
Codec ID                                 : S_TEXT/UTF8
Codec ID/Info                            : UTF-8 Plain Text
Duration                                 : 2 h 3 min
Bit rate                                 : 25 b/s
Count of elements                        : 918
Stream size                              : 23.3 KiB (0%)
Language                                 : English
Default                                  : Yes
Forced                                   : No

Menu
00:00:00.000                             : en:绗?01 绔?
00:12:08.333                             : en:绗?02 绔?
00:21:24.833                             : en:绗?03 绔?
00:34:23.625                             : en:绗?04 绔?
00:41:32.042                             : en:绗?05 绔?
00:51:22.667                             : en:绗?06 绔?
00:59:12.583                             : en:绗?07 绔?
01:13:04.708                             : en:绗?08 绔?
01:23:38.292                             : en:绗?09 绔?
01:34:21.583                             : en:绗?10 绔?
01:46:50.167                             : en:绗?11 绔?
01:55:09.333                             : en:绗?12 绔?
02:03:04.208                             : en:绗?13 绔?



                                                                                                                                                                                                        
                                                                                                                                                                                                                                                                                                                                                                                                                                                                                                                                                                                                                                                                                                                                                                                                                                                      
65b2744f25cf189b85506f620805b90a.torrent (76.19 KB)

回复

使用道具 举报

小黑屋|西西电影论坛 ( 闽ICP备160050789号-1 )

所有资源来自网络采集,如果侵犯了您的权益,请发邮件至 [email protected],立即清除相关链接

GMT+8, 2020-1-19 19:09 , Processed in 0.122786 second(s), 27 queries .

Powered by Discuz! X3.2

© 2001-2013 Comsenz Inc.

快速回复 返回顶部 返回列表