西西电影论坛

 找回密码
 立即注册

雪人奇缘 Abominable.2019.1080p.3D.BluRay.Half-SBS.x264.TrueHD.7.1.Atmos-F...

[复制链接]

电影下载 发表于 2019-12-20 12:58:57 | 显示全部楼层 |阅读模式
帖子完整标题:雪人奇缘 Abominable.2019.1080p.3D.BluRay.Half-SBS.x264.TrueHD.7.1.Atmos-FGT 13.06GB




◎译  名 雪人奇缘 / Everest / 坏坏萌雪怪(台) / 珠穆朗玛 / 长毛雪宝(港)
◎片  名 Abominable
◎年  代 2019
◎产  地 美国 / 中国大陆
◎类  别 喜剧 / 动画 / 冒险
◎语  言 英语
◎上映日期 2019-09-07(多伦多电影节) / 2019-09-27(美国) / 2019-10-01(中国大陆)
◎片  长 97分钟
◎导  演 吉尔·卡尔顿 Jill Culton / 托德·维尔德曼 Todd Wilderman
◎编  剧 吉尔·卡尔顿 Jill Culton
◎主  演 汪可盈 Chloe Bennet
       阿尔伯特·蔡 Albert Tsai
       艾迪·伊扎德 Eddie Izzard
       莎拉·保罗森 Sarah Paulson
       丹增·诺盖·特雷纳 Tenzing Norgay Trainor
       周采芹 Tsai Chin
       张子枫 Zifeng Zhang
       陈飞宇 Feiyu Chen
       何向东 Xiangdong He
       刘风 Feng Liu
       万茜 Qian Wan
       蔡明 Ming Cai


◎标  签 动画 | 东方梦工厂 | 2019 | 温情 | 冒险 | 美国 | 喜剧 | 中国大陆

◎简  介  

  珠穆朗玛峰的雪人是传说吗?不是!不仅不是传说,它还拥有令人着迷的魔力!少女小艺在天台上目睹了雪人大毛即将被抓的惨况,决定亲自护送大毛回家,她的小伙伴阿俊和鹏鹏也加入了护送队伍。一路上冒险小分队路经了千岛湖、黄山、乐山大佛等著名的中国景点,雪人大毛为了躲避抓捕者,也逐一展现了自己神奇的魔力。巨大化的蒲公英,一秒变大的蓝莓,油菜花海浪,还有什么是雪人大毛的魔力做不到的?而抓捕者也早已在他们的目的地珠峰等待着冒险小分队步入早已设好的圈套…
Video
ID                                       : 1
Format                                   : AVC
Format/Info                              : Advanced Video Codec
Format settings                          : CABAC / 3 Ref Frames
Format settings, CABAC                   : Yes
Format settings, Reference frames        : 3 frames
Codec ID                                 : V_MPEG4/ISO/AVC
Duration                                 : 1 h 37 min
Bit rate                                 : 15.5 Mb/s
Width                                    : 1 920 pixels
Height                                   : 1 080 pixels
Display aspect ratio                     : 16:9
Frame rate mode                          : Constant
Frame rate                               : 23.976 (24000/1001) FPS
Color space                              : YUV
Chroma subsampling                       : 4:2:0
Bit depth                                : 8 bits
Scan type                                : Progressive
Bits/(Pixel*Frame)                       : 0.312
Stream size                              : 10.5 GiB (80%)
Title                                    : Abominable.2019.1080p.3D.BluRay.Half-SBS.x264.TrueHD.7.1.Atmos-FGT
Writing library                          : x264 core 148
Encoding settings                        : cabac=1 / ref=3 / deblock=1:-1:-1 / analyse=0x3:0 / me=hex / subme=5 / psy=1 / psy_rd=1.00:0.00 / mixed_ref=0 / me_range=16 / chroma_me=1 / trellis=1 / 8x8dct=1 / cqm=0 / deadzone=21,11 / fast_pskip=0 / chroma_qp_offset=0 / threads=24 / lookahead_threads=6 / sliced_threads=0 / nr=0 / decimate=1 / interlaced=0 / bluray_compat=0 / constrained_intra=0 / bframes=2 / b_pyramid=0 / b_adapt=1 / b_bias=0 / direct=1 / weightb=0 / open_gop=0 / weightp=0 / keyint=24 / keyint_min=2 / scenecut=40 / intra_refresh=0 / rc=abr / mbtree=0 / bitrate=15500 / ratetol=1.0 / qcomp=0.60 / qpmin=0 / qpmax=69 / qpstep=4 / ip_ratio=1.40 / pb_ratio=1.30 / aq=1:1.00
Default                                  : Yes
Forced                                   : No
Color range                              : Limited
Color primaries                          : BT.709
Transfer characteristics                 : BT.709
Matrix coefficients                      : BT.709

Audio #1
ID                                       : 2
Format                                   : MLP FBA 16-ch
Format/Info                              : Meridian Lossless Packing FBA with 16-channel presentation
Commercial name                          : Dolby TrueHD with Dolby Atmos
Codec ID                                 : A_TRUEHD
Duration                                 : 1 h 37 min
Bit rate mode                            : Variable
Bit rate                                 : 3 049 kb/s
Maximum bit rate                         : 4 824 kb/s
Channel(s)                               : 8 channels
Channel layout                           : L R C LFE Ls Rs Lb Rb
Sampling rate                            : 48.0 kHz
Frame rate                               : 1 200.000 FPS (40 SPF)
Compression mode                         : Lossless
Stream size                              : 2.07 GiB (16%)
Title                                    : Abominable.2019.1080p.3D.BluRay.Half-SBS.x264.TrueHD.7.1.Atmos-FGT
Language                                 : English
Default                                  : Yes
Forced                                   : No
Number of dynamic objects                : 11
Bed channel count                        : 1 channel
Bed channel configuration                : LFE

Audio #2
ID                                       : 3
Format                                   : AC-3
Format/Info                              : Audio Coding 3
Commercial name                          : Dolby Digital
Codec ID                                 : A_AC3
Duration                                 : 1 h 37 min
Bit rate mode                            : Constant
Bit rate                                 : 192 kb/s
Channel(s)                               : 2 channels
Channel layout                           : L R
Sampling rate                            : 48.0 kHz
Frame rate                               : 31.250 FPS (1536 SPF)
Bit depth                                : 16 bits
Compression mode                         : Lossy
Stream size                              : 134 MiB (1%)
Title                                    : Abominable.2019.1080p.3D.BluRay.Half-SBS.x264.TrueHD.7.1.Atmos-FGT
Language                                 : English
Service kind                             : Complete Main
Default                                  : No
Forced                                   : No

Audio #3
ID                                       : 4
Format                                   : AC-3
Format/Info                              : Audio Coding 3
Commercial name                          : Dolby Digital
Codec ID                                 : A_AC3
Duration                                 : 1 h 37 min
Bit rate mode                            : Constant
Bit rate                                 : 448 kb/s
Channel(s)                               : 6 channels
Channel layout                           : L R C LFE Ls Rs
Sampling rate                            : 48.0 kHz
Frame rate                               : 31.250 FPS (1536 SPF)
Bit depth                                : 16 bits
Compression mode                         : Lossy
Stream size                              : 311 MiB (2%)
Title                                    : Abominable.2019.1080p.3D.BluRay.Half-SBS.x264.TrueHD.7.1.Atmos-FGT
Language                                 : English
Service kind                             : Complete Main
Default                                  : No
Forced                                   : No

Text
ID                                       : 5
Format                                   : PGS
Muxing mode                              : zlib
Codec ID                                 : S_HDMV/PGS
Codec ID/Info                            : Picture based subtitle format used on BDs/HD-DVDs
Duration                                 : 1 h 35 min
Bit rate                                 : 52.0 kb/s
Count of elements                        : 3098
Stream size                              : 35.7 MiB (0%)
Title                                    : English-PGS
Language                                 : English
Default                                  : Yes
Forced                                   : No

Menu
00:00:00.000                             : en:Chapter 01
00:04:11.542                             : en:Chapter 02
00:09:10.883                             : en:Chapter 03
00:13:42.238                             : en:Chapter 04
00:16:13.597                             : en:Chapter 05
00:21:34.668                             : en:Chapter 06
00:25:02.459                             : en:Chapter 07
00:29:30.435                             : en:Chapter 08
00:33:57.452                             : en:Chapter 09
00:36:43.618                             : en:Chapter 10
00:41:53.511                             : en:Chapter 11
00:46:30.412                             : en:Chapter 12
00:50:42.205                             : en:Chapter 13
00:56:31.221                             : en:Chapter 14
01:01:40.530                             : en:Chapter 15
01:06:32.947                             : en:Chapter 16
01:11:44.341                             : en:Chapter 17
01:15:26.355                             : en:Chapter 18
01:20:41.545                             : en:Chapter 19
01:26:44.407                             : en:Chapter 20



                                                                                                                                                                                                        
                                                                                                                                                                                                                                                                                                                                                                                                                                                                                                                                                                                                                                                                                                                                                                                                                                                      
f6f8f5cfc0b8c5520f0b35677925c504.torrent (65.85 KB)

回复

使用道具 举报

小黑屋|西西电影论坛 ( 闽ICP备160050789号-1 )

所有资源来自网络采集,如果侵犯了您的权益,请发邮件至 [email protected],立即清除相关链接

GMT+8, 2020-10-27 00:19 , Processed in 0.119064 second(s), 27 queries .

Powered by Discuz! X3.2

© 2001-2013 Comsenz Inc.

快速回复 返回顶部 返回列表