西西电影论坛

 找回密码
 立即注册

[BD-4K] 偷心女盗 The.Hustle.2019.2160p.WEB.H265-HOTLiPS 7.59GB

[复制链接]

电影下载 发表于 2020-7-16 11:08:13 | 显示全部楼层 |阅读模式
帖子完整标题:偷心女盗 The.Hustle.2019.2160p.WEB.H265-HOTLiPS 7.59GB




◎译  名 偷心女盗 / Dirty Rotten Scoundrels / Nasty Women / 圆美大盗(港) / 坏坏女郎 / 诈骗女神(台)
◎片  名 The Hustle
◎年  代 2019
◎产  地 美国
◎类  别 喜剧
◎语  言 英语
◎上映日期 2019-05-10(美国)
◎IMDb评分  5.4/10 from 42282 users
◎片  长 93分钟
◎导  演 克里斯·艾迪生 Chris Addison
◎编  剧 斯坦利·沙皮罗 Stanley Shapiro / 保罗·海宁 Paul Henning / 戴尔·劳纳尔 Dale Launer / 雅克·舍费尔 Jac Schaeffer
◎主  演 安妮·海瑟薇 Anne Hathaway
       蕾蓓尔·威尔森 Rebel Wilson
       蒂姆·布雷克·尼尔森 Tim Blake Nelson
       艾利克斯·夏普 Alex Sharp
       罗非洛·迪格托勒 Raffaello Degruttola
       迪诺·布加迪 Deano Bugatti
       布鲁诺·塞维利亚 Bruno Sevilla
       克里斯多夫·德·舒瓦西 Christophe de Choisy
       菲利普·德斯穆尔斯 Philip Desmeules
       库姆德·潘特 Kumud Pant
       塞缪尔·加斯帕德 Samuel Gaspard


◎标  签 喜剧 | 美国 | 搞笑 | 女性 | 2019 | 犯罪 | 诈骗 | 安妮海瑟薇

◎简  介   

  安妮·海瑟薇将加盟蕾蓓尔·威尔森新片《坏坏女郎》(Nasty Women,暂译)。影片翻拍自1988年弗兰克·奥兹执导,史蒂夫·马丁、迈克尔·凯恩主演的《骗徒臭事多》。片中安妮·海瑟薇、蕾蓓尔·威尔森化身女版骗徒,当然此次她们的目标将是鲜嫩多汁的“单身男子”。

◎获奖情况  

  第40届金酸莓奖(2020)
  最差女主角(提名) 安妮·海瑟薇 / 蕾蓓尔·威尔森
Video
ID                                       : 1
Format                                   : HEVC
Format/Info                              : High Efficiency Video Coding
Codec ID                                 : V_MPEGH/ISO/HEVC
Duration                                 : 1 h 33 min
Bit rate                                 : 10.8 Mb/s
Width                                    : 3 840 pixels
Height                                   : 1 600 pixels
Display aspect ratio                     : 2.40:1
Frame rate mode                          : Constant
Frame rate                               : 23.976 (24000/1001/189150) FPS
Standard                                 : NTSC
Color space                              : YUV
Chroma subsampling                       : 4:2:0
Bit depth                                : 8 bits
Bits/(Pixel*Frame)                       : 0.074
Stream size                              : 7.08 GiB (94%)
Writing library                          : x265 2.9_elemental9e0607aa5b6f:[Linux][GCC 4.8.5][64 bit] 8bit+10bit+12bit
Encoding settings                        : cpuid=1111039 / frame-threads=2 / wpp / no-pmode / no-pme / psnr / ssim / log-level=2 / csv / csv-log-level=2 / input-csp=1 / input-res=3840x1600 / interlace=0 / total-frames=0 / level-idc=50 / high-tier=1 / uhd-bd=0 / ref=5 / no-allow-non-conformance / no-repeat-headers / annexb / no-aud / no-hrd / info / hash=0 / no-temporal-layers / no-open-gop / min-keyint=61 / keyint=120 / gop-lookahead=0 / bframes=8 / b-adapt=2 / b-pyramid / bframe-bias=0 / rc-lookahead=120 / lookahead-slices=4 / scenecut=0 / radl=0 / no-intra-refresh / ctu=64 / min-cu-size=8 / rect / amp / max-tu-size=32 / tu-inter-depth=4 / tu-intra-depth=4 / limit-tu=4 / rdoq-level=2 / dynamic-rd=0.00 / no-ssim-rd / signhide / tskip / nr-intra=100 / nr-inter=600 / no-constrained-intra / strong-intra-smoothing / max-merge=3 / limit-refs=3 / limit-modes / me=3 / subme=3 / merange=57 / temporal-mvp / weightp / weightb / no-analyze-src-pics / deblock=0:0 / no-sao / no-sao-non-deblock / rd=4 / no-early-skip / no-rskip / no-fast-intra / tskip-fast / no-cu-lossless / b-intra / no-splitrd-skip / rdpenalty=0 / psy-rd=4.00 / psy-rdoq=10.00 / no-rd-refine / no-lossless / cbqpoffs=0 / crqpoffs=0 / rc=crf / crf=25.0 / qcomp=0.60 / qpstep=1 / stats-write=0 / stats-read=0 / vbv-maxrate=15000 / vbv-bufsize=20000 / vbv-init=0.9 / crf-max=0.0 / crf-min=0.0 / ipratio=1.10 / pbratio=1.00 / aq-mode=0 / aq-strength=1.50 / no-cutree / zone-count=0 / no-strict-cbr / qg-size=32 / rc-grain / qpmax=69 / qpmin=0 / const-vbv / sar=1 / overscan=0 / videoformat=2 / range=0 / colorprim=1 / transfer=1 / colormatrix=1 / chromaloc=0 / display-window=0 / max-cll=0,0 / min-luma=0 / max-luma=255 / log2-max-poc-lsb=8 / vui-timing-info / vui-hrd-info / slices=1 / opt-qp-pps / no-opt-ref-list-length-pps / no-multi-pass-opt-rps / scenecut-bias=0.05 / no-opt-cu-delta-qp / no-aq-motion / no-hdr / no-hdr-opt / no-dhdr10-opt / no-idr-recovery-sei / analysis-reuse-level=5 / scale-factor=0 / refine-intra=0 / refine-inter=0 / refine-mv=0 / no-limit-sao / ctu-info=0 / no-lowpass-dct / refine-mv-type=0 / copy-pic=1 / max-ausize-factor=1.0 / no-dynamic-refine / no-single-sei
Language                                 : English
Default                                  : Yes
Forced                                   : No
Color range                              : Limited
Color primaries                          : BT.709
Transfer characteristics                 : BT.709
Matrix coefficients                      : BT.709

Audio
ID                                       : 2
Format                                   : E-AC-3
Format/Info                              : Enhanced AC-3
Commercial name                          : Dolby Digital Plus
Codec ID                                 : A_EAC3
Duration                                 : 1 h 33 min
Bit rate mode                            : Constant
Bit rate                                 : 640 kb/s
Channel(s)                               : 6 channels
Channel layout                           : L R C LFE Ls Rs
Sampling rate                            : 48.0 kHz
Frame rate                               : 31.250 FPS (1536 SPF)
Compression mode                         : Lossy
Stream size                              : 428 MiB (6%)
Title                                    : English
Language                                 : English
Service kind                             : Complete Main
Default                                  : Yes
Forced                                   : No

Text
ID                                       : 3
Format                                   : UTF-8
Codec ID                                 : S_TEXT/UTF8
Codec ID/Info                            : UTF-8 Plain Text
Duration                                 : 1 h 32 min
Bit rate                                 : 79 b/s
Count of elements                        : 1969
Stream size                              : 54.1 KiB (0%)
Title                                    : English (SDH)
Language                                 : English
Default                                  : No
Forced                                   : No




                                                                                                                                                                                                        
                                                                                                                                                                                                                                                                                                                                                                                                                                                                                                                                                                                                                                                                                                                                                                                                                                                       d3c9f0beddf043f5216edf7aae71cbfe.zip (38.63 KB)

回复

使用道具 举报

小黑屋|西西电影论坛 ( 闽ICP备160050789号-1 )

所有资源来自网络采集,如果侵犯了您的权益,请发邮件至 [email protected],立即清除相关链接

GMT+8, 2020-8-15 13:17 , Processed in 0.110419 second(s), 27 queries .

Powered by Discuz! X3.2

© 2001-2013 Comsenz Inc.

快速回复 返回顶部 返回列表