西西电影论坛

 找回密码
 立即注册

[BD-4K] 我们自由潇洒爱最大 We.Are.Freestyle.Love.Supreme.2020.2160p.HULU.WEB...

[复制链接]

电影下载 发表于 2020-7-23 22:34:54 | 显示全部楼层 |阅读模式
:我们自由潇洒爱最大 We.Are.Freestyle.Love.Supreme.2020.2160p.HULU.WEBRip.x265.10bit.SDR.DDP5.1-NTG 9.02GB




◎译  名 我们自由潇洒爱最大
◎片  名 We Are Freestyle Love Supreme
◎年  代 2020
◎产  地 美国
◎类  别 纪录片
◎语  言 英语
◎上映日期 2020-01-28(圣丹斯电影节) / 2020-06-05(美国)
◎IMDb评分  4.5/10 from 27 users
◎导  演 安德鲁·弗里德 Andrew Fried
◎编  剧 Brian Anton / Peter Curtis
◎主  演 乌特卡什·安邦德卡尔 Utkarsh Ambudkar
       詹姆斯·门罗·伊格尔哈特 James Monroe Iglehart
       克里斯·杰克逊 Chris Jackson
       托马斯·凯尔 Thomas Kail
       林-曼努尔·米兰达 Lin-Manuel Miranda
       Andrew Bancroft
       Arthur Lewis
       Bill Sherman
       Chris Sullivan
       Anthony Veneziale


◎简  介   

  记录#Lin-Manuel Miranda#创立的即兴hip-hop秀"Freestyle Love Supreme"15年的发展历程。
Video
ID                                       : 1
Format                                   : HEVC
Format/Info                              : High Efficiency Video Coding
Codec ID                                 : V_MPEGH/ISO/HEVC
Duration                                 : 1 h 25 min
Bit rate                                 : 14.8 Mb/s
Width                                    : 3 840 pixels
Height                                   : 2 160 pixels
Display aspect ratio                     : 16:9
Frame rate mode                          : Constant
Frame rate                               : 23.976 (24000/1001/189150) FPS
Color space                              : YUV
Chroma subsampling                       : 4:2:0
Bit depth                                : 10 bits
Bits/(Pixel*Frame)                       : 0.074
Stream size                              : 8.86 GiB (98%)
Default                                  : Yes
Forced                                   : No

Audio
ID                                       : 2
Format                                   : E-AC-3
Format/Info                              : Enhanced AC-3
Commercial name                          : Dolby Digital Plus
Codec ID                                 : A_EAC3
Duration                                 : 1 h 25 min
Bit rate mode                            : Constant
Bit rate                                 : 256 kb/s
Channel(s)                               : 6 channels
Channel layout                           : L R C LFE Ls Rs
Sampling rate                            : 48.0 kHz
Frame rate                               : 31.250 FPS (1536 SPF)
Compression mode                         : Lossy
Stream size                              : 157 MiB (2%)
Language                                 : English
Service kind                             : Complete Main
Default                                  : Yes
Forced                                   : No

Text #1
ID                                       : 3
Format                                   : UTF-8
Codec ID                                 : S_TEXT/UTF8
Codec ID/Info                            : UTF-8 Plain Text
Duration                                 : 1 h 25 min
Bit rate                                 : 126 b/s
Count of elements                        : 2083
Stream size                              : 79.3 KiB (0%)
Language                                 : English
Default                                  : No
Forced                                   : No

Text #2
ID                                       : 4
Format                                   : UTF-8
Codec ID                                 : S_TEXT/UTF8
Codec ID/Info                            : UTF-8 Plain Text
Duration                                 : 1 h 25 min
Bit rate                                 : 130 b/s
Count of elements                        : 2077
Stream size                              : 81.6 KiB (0%)
Language                                 : Spanish
Default                                  : No
Forced                                   : No




                                                                                                                                                                                                        
                                                                                                                                                                                                                                                                                                                            c71f9b311239a1df3c64aadcf49c0cf2.zip (45.8 KB)

回复

使用道具 举报

小黑屋|西西电影论坛 ( 闽ICP备160050789号-1 )

所有资源来自网络采集,如果侵犯了您的权益,请发邮件至 [email protected],立即清除相关链接

GMT+8, 2020-8-15 12:39 , Processed in 0.137484 second(s), 27 queries .

Powered by Discuz! X3.2

© 2001-2013 Comsenz Inc.

快速回复 返回顶部 返回列表