西西电影论坛

 找回密码
 立即注册

[BD-4K] 史酷比狗 Scoob.2020.2160p.BluRay.x264.8bit.SDR.DTS-HD.MA.5.1-SWTYBLZ 14.55GB

[复制链接]

电影下载 发表于 2020-7-23 22:34:54 | 显示全部楼层 |阅读模式
帖子完整标题:史酷比狗 Scoob.2020.2160p.BluRay.x264.8bit.SDR.DTS-HD.MA.5.1-SWTYBLZ 14.55GB




◎译  名 史酷比狗 / S.C.O.O.B / 史酷比大电影
◎片  名 Scooby-Doo
◎年  代 2020
◎产  地 美国
◎类  别 喜剧 / 动画 / 冒险
◎语  言 英语
◎上映日期 2020-05-15(美国)
◎IMDb评分  5.7/10 from 11632 users
◎片  长 94分钟(美国)
◎导  演 托尼·塞沃恩 Tony Cervone
◎编  剧 马特·利伯曼 Matt Lieberman / 亚当·希泰凯尔 Adam Sztykiel / Jack Donaldson / 德里克·艾略特 Derek Elliott / 伊尔·波戴尔 Eyal Podell / 乔纳森·E·斯图尔特 Jonathon E. Stewart / 威廉·汉纳 William Hanna / 约瑟夫·巴伯拉 Joseph Barbera
◎主  演 威尔·福特 Will Forte
       马克·沃尔伯格 Mark Wahlberg
       詹森·艾萨克 Jason Isaacs
       吉娜·罗德里格兹 Gina Rodriguez
       扎克·埃夫隆 Zac Efron
       阿曼达·塞弗里德 Amanda Seyfried
       科雷西·克莱门斯 Kiersey Clemons
       郑肯 Ken Jeong
       崔西·摩根 Tracy Morgan
       弗兰克·维尔克 Frank Welker
       伊恩·阿米蒂奇 Iain Armitage
       麦肯娜·格瑞丝 Mckenna Grace
       皮尔斯·加格农 Pierce Gagnon
       阿丽亚娜·格林布拉特 Ariana Greenblatt
       西蒙·考威尔 Simon Cowell
       克里斯蒂娜·亨德里克斯 Christina Hendricks
       亨利·温克勒 Henry Winkler
       哈里·佩里 Harry Perry
       约翰·迪·马吉欧 John Di Maggio
       凯文·赫夫南 Kevin Heffernan
       伊拉·格拉斯 Ira Glass
       玛雅·厄斯金 Maya Erskine
       比利·维斯特 Billy West
       Don Messick
       弗雷德·塔特西奥 Fred Tatasciore
       贾斯蒂娜·马查多 Justina Machado
       肯妮迪·皮尔 Kennedy Peil
       John McDaniel
       帕姆·科茨 Pam Coats
       托尼·塞沃恩 Tony Cervone
       亚当·希泰凯尔 Adam Sztykiel
       吉姆·麦司奇门 Jim Meskimen


◎标  签 动画 | 美国 | 喜剧 | 2020 | 史酷比 | 华纳 | 电影 | 经典

◎简  介   

  《史酷比狗》是史酷比狗的第一部大银幕动画冒险长片,讲述了史酷比不为人知的起源故事,以及神秘公司史上最精彩的惊世秘案。
  《史酷比狗》演绎了史酷比与其一生挚友夏奇的初次相遇,以及他们如何与少年侦探弗雷德、维尔玛和达芙妮一起组建了世界著名的神秘公司。如今,神秘公司已经解决了数百起谜案、进行了无数次冒险,但史酷比和他的同伴们发现,他们正面临有史以来最惊险、最具挑战性的神秘案件:一个将“幽灵狗”塞伯勒斯释放回世上的阴谋。当他们拼命努力想要阻止这一全球性大灾难之时,他们也发现了史酷比的秘密身世,以及他超乎想象的神秘命运。
Video
ID                                       : 1
Format                                   : AVC
Format/Info                              : Advanced Video Codec
Format settings                          : CABAC / 7 Ref Frames
Format settings, CABAC                   : Yes
Format settings, Reference frames        : 7 frames
Codec ID                                 : V_MPEG4/ISO/AVC
Duration                                 : 1 h 33 min
Bit rate                                 : 19.1 Mb/s
Width                                    : 3 840 pixels
Height                                   : 1 608 pixels
Display aspect ratio                     : 2.40:1
Frame rate mode                          : Constant
Frame rate                               : 23.976 (24000/1001/189150) FPS
Color space                              : YUV
Chroma subsampling                       : 4:2:0
Bit depth                                : 8 bits
Scan type                                : Progressive
Bits/(Pixel*Frame)                       : 0.129
Stream size                              : 12.5 GiB (86%)
Title                                    : Scoob.2020.2160p.BluRay.x264.8bit.SDR.DTS-HD.MA.5.1-SWTYBLZ
Writing library                          : x264 core 157 r2935 545de2f
Encoding settings                        : cabac=1 / ref=7 / deblock=1:1:1 / analyse=0x3:0x113 / me=umh / subme=10 / psy=1 / psy_rd=0.40:0.00 / mixed_ref=1 / me_range=48 / chroma_me=1 / trellis=2 / 8x8dct=1 / cqm=0 / deadzone=21,11 / fast_pskip=1 / chroma_qp_offset=-2 / threads=48 / lookahead_threads=5 / sliced_threads=0 / nr=0 / decimate=0 / interlaced=0 / bluray_compat=0 / constrained_intra=0 / bframes=5 / b_pyramid=2 / b_adapt=2 / b_bias=0 / direct=3 / weightb=1 / open_gop=0 / weightp=2 / keyint=250 / keyint_min=23 / scenecut=40 / intra_refresh=0 / rc_lookahead=50 / rc=crf / mbtree=1 / crf=16.0 / qcomp=0.60 / qpmin=0 / qpmax=69 / qpstep=4 / ip_ratio=1.40 / aq=1:0.60
Default                                  : Yes
Forced                                   : No

Audio #1
ID                                       : 2
Format                                   : DTS XLL
Format/Info                              : Digital Theater Systems
Commercial name                          : DTS-HD Master Audio
Codec ID                                 : A_DTS
Duration                                 : 1 h 33 min
Bit rate mode                            : Variable
Bit rate                                 : 2 314 kb/s
Channel(s)                               : 6 channels
Channel layout                           : C L R Ls Rs LFE
Sampling rate                            : 48.0 kHz
Frame rate                               : 93.750 FPS (512 SPF)
Bit depth                                : 16 bits
Compression mode                         : Lossless
Stream size                              : 1.52 GiB (10%)
Title                                    : Scoob.2020.2160p.BluRay.x264.8bit.SDR.DTS-HD.MA.5.1-SWTYBLZ
Language                                 : English
Default                                  : Yes
Forced                                   : No

Audio #2
ID                                       : 3
Format                                   : AC-3
Format/Info                              : Audio Coding 3
Commercial name                          : Dolby Digital
Codec ID                                 : A_AC3
Duration                                 : 1 h 33 min
Bit rate mode                            : Constant
Bit rate                                 : 640 kb/s
Channel(s)                               : 6 channels
Channel layout                           : L R C LFE Ls Rs
Sampling rate                            : 48.0 kHz
Frame rate                               : 31.250 FPS (1536 SPF)
Compression mode                         : Lossy
Stream size                              : 429 MiB (3%)
Title                                    : Scoob.2020.2160p.BluRay.x264.8bit.SDR.DTS-HD.MA.5.1-SWTYBLZ
Language                                 : English
Service kind                             : Complete Main
Default                                  : No
Forced                                   : No

Text #1
ID                                       : 4
Format                                   : UTF-8
Codec ID                                 : S_TEXT/UTF8
Codec ID/Info                            : UTF-8 Plain Text
Duration                                 : 1 h 26 min
Bit rate                                 : 65 b/s
Count of elements                        : 1483
Stream size                              : 41.9 KiB (0%)
Title                                    : English-SRT
Language                                 : English
Default                                  : Yes
Forced                                   : No

Text #2
ID                                       : 5
Format                                   : PGS
Muxing mode                              : zlib
Codec ID                                 : S_HDMV/PGS
Codec ID/Info                            : Picture based subtitle format used on BDs/HD-DVDs
Duration                                 : 1 h 31 min
Bit rate                                 : 49.6 kb/s
Count of elements                        : 3770
Stream size                              : 32.6 MiB (0%)
Title                                    : English-PGS
Language                                 : English
Default                                  : No
Forced                                   : No

Text #3
ID                                       : 6
Format                                   : PGS
Muxing mode                              : zlib
Codec ID                                 : S_HDMV/PGS
Codec ID/Info                            : Picture based subtitle format used on BDs/HD-DVDs
Duration                                 : 1 h 33 min
Bit rate                                 : 33.0 kb/s
Count of elements                        : 2752
Stream size                              : 22.0 MiB (0%)
Title                                    : French-PGS
Language                                 : French
Default                                  : No
Forced                                   : No

Text #4
ID                                       : 7
Format                                   : PGS
Muxing mode                              : zlib
Codec ID                                 : S_HDMV/PGS
Codec ID/Info                            : Picture based subtitle format used on BDs/HD-DVDs
Duration                                 : 1 h 28 min
Bit rate                                 : 38.6 kb/s
Count of elements                        : 2740
Stream size                              : 24.6 MiB (0%)
Title                                    : Spanish-PGS
Language                                 : Spanish
Default                                  : No
Forced                                   : No

Menu
00:00:00.000                             : en:Chapter 1
00:07:40.460                             : en:Chapter 2
00:15:15.748                             : en:Chapter 3
00:25:04.086                             : en:Chapter 4
00:34:40.203                             : en:Chapter 5
00:44:58.779                             : en:Chapter 6
00:53:22.533                             : en:Chapter 7
01:01:22.095                             : en:Chapter 8
01:10:20.383                             : en:Chapter 9
01:19:34.353                             : en:Chapter 10
01:27:18.066                             : en:Chapter 11




                                                                                                                                                                                                        
                                                                                                                                                                                                                                                                                                                                                                                                                                                                                                                                                                      7814191a9f639b0d9cb4bd64f93e0503.zip (73.46 KB)

回复

使用道具 举报

小黑屋|西西电影论坛 ( 闽ICP备160050789号-1 )

所有资源来自网络采集,如果侵犯了您的权益,请发邮件至 [email protected],立即清除相关链接

GMT+8, 2020-8-15 12:52 , Processed in 0.129657 second(s), 27 queries .

Powered by Discuz! X3.2

© 2001-2013 Comsenz Inc.

快速回复 返回顶部 返回列表