西西电影论坛

 找回密码
 立即注册

报复 Reprisal.2018.1080p.BluRay.x264.DTS-CHD 7.93GB

[复制链接]

电影下载 发表于 2020-7-30 00:21:30 | 显示全部楼层 |阅读模式
帖子完整标题:报复 Reprisal.2018.1080p.BluRay.x264.DTS-CHD 7.93GB




◎译  名 报复 / DEATH SHOT
◎片  名 Reprisal
◎年  代 2018
◎产  地 美国 / 英国
◎类  别 动作
◎语  言 英语
◎上映日期 2018-08-31(美国)
◎IMDb评分  4.2/10 from 5446 users
◎片  长 89分钟
◎导  演 布莱恩·A·米勒 Brian A Miller
◎编  剧 Bryce Hammons
◎主  演 弗兰克·格里罗 Frank Grillo
       布鲁斯·威利斯 Bruce Willis
       乔纳森·斯卡奇 Johnathon Schaech
       奥莉维亚·库尔普 Olivia Culpo
       泰勒·乔恩·奥尔森 Tyler Jon Olson
       沃斯·史蒂文斯 Wass Stevens
       科林·伊格斯菲德 Colin Egglesfield
       谢伊·巴克纳 Shea Buckner
       肯·斯特伦克 Ken Strunk
       Geoff Reeves


◎标  签 动作 | 犯罪 | 布鲁斯·威利斯 | 美国 | 2018 | 美国电影 | 弗兰克·格里罗 | 电影

◎简  介   

  银行经理雅各布(弗兰克·格里罗饰)的同事被暴徒夺去生命,而他将和警察(布鲁斯·威利斯饰)联手制服凶手。
Video
ID                                       : 1
Format                                   : AVC
Format/Info                              : Advanced Video Codec
Format profile                           :
Format settings                          : CABAC / 4 Ref Frames
Format settings, CABAC                   : Yes
Format settings, ReFrames                : 4 frames
Codec ID                                 : V_MPEG4/ISO/AVC
Duration                                 : 1 h 29 min
Bit rate                                 : 11.2 Mb/s
Width                                    : 1 920 pixels
Height                                   : 1 038 pixels
Display aspect ratio                     : 1.85:1
Frame rate mode                          : Constant
Frame rate                               : 23.976 (24000/1001/189150) FPS
Color space                              : YUV
Chroma subsampling                       : 4:2:0
Bit depth                                : 8 bits
Scan type                                : Progressive
Bits/(Pixel*Frame)                       : 0.235
Stream size                              : 6.99 GiB (88%)
Writing library                          : x264 core 155 r2901 7d0ff22
Encoding settings                        : cabac=1 / ref=4 / deblock=1:-3:-3 / analyse=0x3:0x113 / me=umh / subme=10 / psy=1 / psy_rd=1.05:0.10 / mixed_ref=1 / me_range=48 / chroma_me=1 / trellis=2 / 8x8dct=1 / cqm=0 / deadzone=21,11 / fast_pskip=0 / chroma_qp_offset=-2 / threads=18 / lookahead_threads=1 / sliced_threads=0 / nr=0 / decimate=1 / interlaced=0 / bluray_compat=0 / constrained_intra=0 / bframes=6 / b_pyramid=2 / b_adapt=2 / b_bias=0 / direct=3 / weightb=1 / open_gop=0 / weightp=2 / keyint=250 / keyint_min=23 / scenecut=40 / intra_refresh=0 / rc=2pass / mbtree=0 / bitrate=11244 / ratetol=2.0 / qcomp=0.70 / qpmin=0 / qpmax=69 / qpstep=4 / cplxblur=20.0 / qblur=0.5 / ip_ratio=1.40 / pb_ratio=1.30 / aq=3:1.00
Default                                  : Yes
Forced                                   : No

Audio
ID                                       : 2
Format                                   : DTS
Format/Info                              : Digital Theater Systems
Codec ID                                 : A_DTS
Duration                                 : 1 h 29 min
Bit rate mode                            : Constant
Bit rate                                 : 1 509 kb/s
Channel(s)                               : 6 channels
Channel layout                           : C L R Ls Rs LFE
Sampling rate                            : 48.0 kHz
Frame rate                               : 93.750 FPS (512 SPF)
Bit depth                                : 24 bits
Compression mode                         : Lossy
Stream size                              : 962 MiB (12%)
Language                                 : English
Default                                  : Yes
Forced                                   : No

Text
ID                                       : 3
Format                                   : UTF-8
Codec ID                                 : S_TEXT/UTF8
Codec ID/Info                            : UTF-8 Plain Text
Duration                                 : 1 h 24 min
Bit rate                                 : 45 b/s
Count of elements                        : 877
Stream size                              : 27.8 KiB (0%)
Language                                 : English
Default                                  : Yes
Forced                                   : No

Menu
00:00:00.000                             : en:00:00:00.000
00:06:12.664                             : en:00:06:12.664
00:11:17.051                             : en:00:11:17.051
00:14:17.565                             : en:00:14:17.565
00:21:03.971                             : en:00:21:03.971
00:27:23.475                             : en:00:27:23.475
00:33:03.982                             : en:00:33:03.982
00:38:21.633                             : en:00:38:21.633
00:43:16.719                             : en:00:43:16.719
00:49:32.636                             : en:00:49:32.636
00:56:04.945                             : en:00:56:04.945
01:00:42.472                             : en:01:00:42.472
01:06:03.793                             : en:01:06:03.793
01:11:35.833                             : en:01:11:35.833
01:18:53.729                             : en:01:18:53.729
01:24:12.756                             : en:01:24:12.756




                                                                                                                                                                                                        
                                                                                                                                                                                                                                                                                                                                 dc3103dab034e32a361967985cca5090.zip (80 KB)

回复

使用道具 举报

小黑屋|西西电影论坛 ( 闽ICP备160050789号-1 )

所有资源来自网络采集,如果侵犯了您的权益,请发邮件至 [email protected],立即清除相关链接

GMT+8, 2020-8-15 12:46 , Processed in 0.099910 second(s), 27 queries .

Powered by Discuz! X3.2

© 2001-2013 Comsenz Inc.

快速回复 返回顶部 返回列表