西西电影论坛

 找回密码
 立即注册

曼蒂/曼迪 Mandy.2018.1080p.BluRay.x264.DTS-CHD 9.30GB

[复制链接]

电影下载 发表于 2020-7-30 00:21:30 | 显示全部楼层 |阅读模式
帖子完整标题:曼蒂/曼迪 Mandy.2018.1080p.BluRay.x264.DTS-CHD 9.30GB




◎译  名 曼蒂 / 曼迪 / 狂屠绝路(港)
◎片  名 Mandy
◎年  代 2018
◎产  地 美国 / 比利时 / 英国
◎类  别 动作 / 恐怖 / 犯罪
◎语  言 英语
◎上映日期 2018-01-19(圣丹斯电影节) / 2018-09-14(美国)
◎IMDb评分  6.6/10 from 58669 users
◎片  长 121分钟
◎导  演 帕诺斯·科斯马图斯 Panos Cosmatos
◎编  剧 帕诺斯·科斯马图斯 Panos Cosmatos / 亚伦·斯图尔特-安 Aaron Stewart-Ahn
◎主  演 尼古拉斯·凯奇 Nicolas Cage
       安德丽亚·瑞斯波罗格 Andrea Riseborough
       莱纳斯·罗彻 Linus Roache
       奈德·丹内利 Ned Dennehy
       欧文·富尔 Olwen Fouere
       理查德·布雷克 Richard Brake
       比尔·杜克 Bill Duke
       兰恩·皮雷 Line Pillet
       克莱蒙·马霍内 Clément Baronnet
       亚历克西斯·朱蒙特 Alexis Julemont


◎标  签 美国 | 惊悚 | 2018 | 犯罪 | 动作 | cult | 血腥 | 宗教

◎简  介   

  影片故事发生在1983年,樵夫雷德·米勒(尼古拉斯·凯奇 饰)与老婆曼蒂(安德丽亚·瑞斯波罗格 饰)居住在深山林里的一栋木屋。老婆曼蒂被一个价值观扭曲的宗教组织“新黎明之子”(The Children of the New Dawn)看上。该组织的领头杰瑞马雅(莱纳斯·罗彻 饰)欲收纳曼蒂入会未果,就在雷德面前活活把曼蒂烧死。雷德一度精神错乱,最终踏上复仇之路。

◎获奖情况  

  第71届戛纳电影节(2018)
  导演双周单元(提名) 帕诺斯·科斯马图斯

  第34届美国独立精神奖(2019)
  最佳摄影(提名)

  第31届芝加哥影评人协会奖(2018)
  最佳原创配乐(提名) 约翰·约翰逊
Video
ID                                       : 1
Format                                   : AVC
Format/Info                              : Advanced Video Codec
Format settings                          : CABAC / 5 Ref Frames
Format settings, CABAC                   : Yes
Format settings, ReFrames                : 5 frames
Codec ID                                 : V_MPEG4/ISO/AVC
Duration                                 : 2 h 1 min
Bit rate                                 : 9 500 kb/s
Width                                    : 1 920 pixels
Height                                   : 804 pixels
Display aspect ratio                     : 2.40:1
Frame rate mode                          : Constant
Frame rate                               : 23.976 (24000/1001/189150) FPS
Color space                              : YUV
Chroma subsampling                       : 4:2:0
Bit depth                                : 8 bits
Scan type                                : Progressive
Bits/(Pixel*Frame)                       : 0.257
Stream size                              : 8.02 GiB (86%)
Writing library                          : x264 core 155 r2901 7d0ff22
Encoding settings                        : cabac=1 / ref=5 / deblock=1:-3:-3 / analyse=0x3:0x113 / me=umh / subme=10 / psy=1 / psy_rd=1.05:0.10 / mixed_ref=1 / me_range=48 / chroma_me=1 / trellis=2 / 8x8dct=1 / cqm=0 / deadzone=21,11 / fast_pskip=0 / chroma_qp_offset=-2 / threads=18 / lookahead_threads=1 / sliced_threads=0 / nr=0 / decimate=1 / interlaced=0 / bluray_compat=0 / constrained_intra=0 / bframes=6 / b_pyramid=2 / b_adapt=2 / b_bias=0 / direct=3 / weightb=1 / open_gop=0 / weightp=2 / keyint=250 / keyint_min=23 / scenecut=40 / intra_refresh=0 / rc=2pass / mbtree=0 / bitrate=9500 / ratetol=2.0 / qcomp=0.70 / qpmin=0 / qpmax=69 / qpstep=4 / cplxblur=20.0 / qblur=0.5 / ip_ratio=1.40 / pb_ratio=1.30 / aq=3:1.00
Default                                  : Yes
Forced                                   : No

Audio
ID                                       : 2
Format                                   : DTS
Format/Info                              : Digital Theater Systems
Codec ID                                 : A_DTS
Duration                                 : 2 h 1 min
Bit rate mode                            : Constant
Bit rate                                 : 1 509 kb/s
Channel(s)                               : 6 channels
Channel layout                           : C L R Ls Rs LFE
Sampling rate                            : 48.0 kHz
Frame rate                               : 93.750 FPS (512 SPF)
Bit depth                                : 24 bits
Compression mode                         : Lossy
Stream size                              : 1.28 GiB (14%)
Language                                 : English
Default                                  : Yes
Forced                                   : No

Text
ID                                       : 3
Format                                   : UTF-8
Codec ID                                 : S_TEXT/UTF8
Codec ID/Info                            : UTF-8 Plain Text
Duration                                 : 1 h 46 min
Bit rate                                 : 15 b/s
Count of elements                        : 498
Stream size                              : 12.3 KiB (0%)
Language                                 : English
Default                                  : Yes
Forced                                   : No

Menu
00:00:00.000                             : en:00:00:00.000
00:11:14.799                             : en:00:11:14.799
00:21:25.826                             : en:00:21:25.826
00:34:30.235                             : en:00:34:30.235
00:51:18.158                             : en:00:51:18.158
01:04:38.500                             : en:01:04:38.500
01:08:57.342                             : en:01:08:57.342
01:16:49.647                             : en:01:16:49.647
01:26:33.980                             : en:01:26:33.980
01:36:26.656                             : en:01:36:26.656
01:47:46.085                             : en:01:47:46.085
01:57:05.018                             : en:01:57:05.018




                                                                                                                                                                                                        
                                                                                                                                                                                                                                                                                                                      90e7e647eab93befec6fbfad702d9c7c.zip (94.08 KB)

回复

使用道具 举报

小黑屋|西西电影论坛 ( 闽ICP备160050789号-1 )

所有资源来自网络采集,如果侵犯了您的权益,请发邮件至 [email protected],立即清除相关链接

GMT+8, 2020-8-15 12:38 , Processed in 0.108677 second(s), 27 queries .

Powered by Discuz! X3.2

© 2001-2013 Comsenz Inc.

快速回复 返回顶部 返回列表