西西电影论坛

 找回密码
 立即注册

大師兄 Big.Brother.2018.1080p.BluRay.x264-USURY 7.67GB

[复制链接]

电影下载 发表于 2020-7-31 12:57:52 | 显示全部楼层 |阅读模式
帖子完整标题:大師兄 Big.Brother.2018.1080p.BluRay.x264-USURY 7.67GB




◎译  名 大师兄 / Big Brother / 我的老师是拳霸
◎片  名 大師兄
◎年  代 2018
◎产  地 中国大陆 / 中国香港
◎类  别 喜剧 / 动作
◎语  言 粤语
◎上映日期 2018-08-24(中国大陆)
◎IMDb评分  6.3/10 from 2094 users
◎片  长 100分钟
◎导  演 阚家伟 Jia Wei Kan
◎编  剧 阚家伟 Jia Wei Kan / 陈大利 Tai-lee Chan
◎主  演 甄子丹 Donnie Yen
       陈乔恩 Joe Chen
       喻亢 Kang Yu
       骆明劼 Mingjie Luo
       汤君慈
       汤君耀
       李靖筠 Gladys Li
       刘朝健
       林秋楠 Qiunan Lin
       云千千 QianQian Yun
       林嘉华 Dominic Lam
       张坚庭 Alfred Cheung
       骆应钧 Ying Kwan Lok
       李枫 Fung Lee
       欧阳伟豪 Benjamin Au Yeung
       楼南光 Billy Lau
       张文杰 Man Kit Cheung


◎标  签 校园 | 动作 | 香港 | 励志 | 青春 | 成长 | 2018 | 中国

◎简  介   

  陈侠,一位初出茅庐的教师,他的学生全是品学皆劣的边缘青年,陈侠运用非常教学的手法,从家访、投其所好、甚至修补各人的家庭关系,化解每位学生的问题,最终把全班学生收服!一切向好之际,陈侠遇到黑道人物鹰哥,为了学生,陈侠跟鹰哥展开一场守护学生前途的终极大战!
Video
ID                                       : 1
Format                                   : AVC
Format/Info                              : Advanced Video Codec
Format settings                          : CABAC / 5 Ref Frames
Format settings, CABAC                   : Yes
Format settings, Reference frames        : 5 frames
Codec ID                                 : V_MPEG4/ISO/AVC
Duration                                 : 1 h 41 min
Bit rate                                 : 9 310 kb/s
Width                                    : 1 920 pixels
Height                                   : 808 pixels
Display aspect ratio                     : 2.40:1
Frame rate mode                          : Constant
Frame rate                               : 24.000 FPS
Color space                              : YUV
Chroma subsampling                       : 4:2:0
Bit depth                                : 8 bits
Scan type                                : Progressive
Bits/(Pixel*Frame)                       : 0.250
Stream size                              : 6.58 GiB (86%)
Writing library                          : x264 core 157 r2969 d4099dd
Encoding settings                        : cabac=1 / ref=5 / deblock=1:-3:-3 / analyse=0x3:0x133 / me=umh / subme=9 / psy=1 / psy_rd=1.00:0.00 / mixed_ref=1 / me_range=16 / chroma_me=1 / trellis=2 / 8x8dct=1 / cqm=0 / deadzone=21,11 / fast_pskip=0 / chroma_qp_offset=-2 / threads=18 / lookahead_threads=1 / sliced_threads=0 / nr=0 / decimate=1 / interlaced=0 / bluray_compat=0 / constrained_intra=0 / bframes=3 / b_pyramid=2 / b_adapt=1 / b_bias=0 / direct=3 / weightb=1 / open_gop=0 / weightp=2 / keyint=240 / keyint_min=24 / scenecut=40 / intra_refresh=0 / rc_lookahead=50 / rc=2pass / mbtree=1 / bitrate=9310 / ratetol=1.0 / qcomp=0.60 / qpmin=0 / qpmax=69 / qpstep=4 / cplxblur=20.0 / qblur=0.5 / ip_ratio=1.40 / aq=1:1.00
Language                                 : English
Default                                  : Yes
Forced                                   : No

Audio
ID                                       : 2
Format                                   : DTS
Format/Info                              : Digital Theater Systems
Codec ID                                 : A_DTS
Duration                                 : 1 h 41 min
Bit rate mode                            : Constant
Bit rate                                 : 1 509 kb/s
Channel(s)                               : 6 channels
Channel layout                           : C L R Ls Rs LFE
Sampling rate                            : 48.0 kHz
Frame rate                               : 93.750 FPS (512 SPF)
Bit depth                                : 24 bits
Compression mode                         : Lossy
Stream size                              : 1.07 GiB (14%)
Language                                 : Chinese
Default                                  : Yes
Forced                                   : No

Text
ID                                       : 3
Format                                   : UTF-8
Codec ID                                 : S_TEXT/UTF8
Codec ID/Info                            : UTF-8 Plain Text
Duration                                 : 1 h 36 min
Bit rate                                 : 65 b/s
Count of elements                        : 1486
Stream size                              : 45.8 KiB (0%)
Title                                    : English
Language                                 : English
Default                                  : Yes
Forced                                   : Yes

Menu
00:00:00.000                             : en:00:00:00.000
00:08:22.917                             : en:00:08:22.917
00:16:09.208                             : en:00:16:09.208
00:25:48.333                             : en:00:25:48.333
00:33:15.417                             : en:00:33:15.417
00:41:07.333                             : en:00:41:07.333
00:49:02.875                             : en:00:49:02.875
00:59:06.500                             : en:00:59:06.500
01:08:56.667                             : en:01:08:56.667
01:18:10.250                             : en:01:18:10.250
01:27:29.292                             : en:01:27:29.292
01:36:58.583                             : en:01:36:58.583




                                                                                                                                                                                                        
                                                                                                                                       
b3382821d5e5d00062d49187f4fca398.zip (39.84 KB)

回复

使用道具 举报

小黑屋|西西电影论坛 ( 闽ICP备160050789号-1 )

所有资源来自网络采集,如果侵犯了您的权益,请发邮件至 [email protected],立即清除相关链接

GMT+8, 2020-8-15 12:53 , Processed in 0.103166 second(s), 27 queries .

Powered by Discuz! X3.2

© 2001-2013 Comsenz Inc.

快速回复 返回顶部 返回列表