西西电影论坛

 找回密码
 立即注册

王国 The.Realm.2018.1080p.BluRay.x264-USURY 8.74GB

[复制链接]

电影下载 发表于 2020-7-31 12:57:52 | 显示全部楼层 |阅读模式
帖子完整标题:王国 The.Realm.2018.1080p.BluRay.x264-USURY 8.74GB




◎译  名 王国 / The Realm / 骗局(台)
◎片  名 El reino
◎年  代 2018
◎产  地 西班牙 / 法国
◎类  别 剧情 / 惊悚
◎语  言 西班牙语
◎上映日期 2018-09-07(多伦多电影节) / 2018-09-28(西班牙)
◎IMDb评分  7.2/10 from 6068 users
◎片  长 122分钟
◎导  演 罗德里戈·索罗戈延 Rodrigo Sorogoyen
◎编  剧 罗德里戈·索罗戈延 Rodrigo Sorogoyen / 伊莎贝尔·佩纳 Isabel Pe?a
◎主  演 安东尼奥·德·拉·托雷 Antonio de la Torre
       莫妮卡·洛佩斯 Mónica López
       巴巴拉·莱涅 Bárbara Lennie
       纳乔·弗雷斯内达 Nacho Fresneda
       阿娜·瓦格纳 Ana Wagener
       路易斯·扎赫拉 Luis Zahera
       弗朗西斯科·雷耶斯 Francisco Reyes
       玛丽亚·德·纳蒂 María de Nati
       豪尔赫·苏克特 Jorge Suquet
       Josep Maria Pou
       David Lorente
       Andrés Lima


◎标  签 西班牙 | 政治 | 剧情 | 悬疑 | 西班牙电影 | 2018 | 西语电影 | 戈雅奖

◎简  介   

  西班牙版的《纸牌屋》,西班牙青年导演罗德里哥索罗格耶执导的悬疑惊悚片,获第33届西班牙戈雅奖 (2019)十三项提名。描述政治人物腹背受敌的惊险处境,不仅得应付檯面政敌的明枪暗箭,更得提防同党队友的落井下石,惊悚呈现政治游戏的阴险狡诈,最终急转直下的结局完全超乎预期。
  深具领袖魅力的政治家曼纽尔(安东尼奥德拉托雷 饰),不仅受到民众爱戴,更拥有崇高的名声与地位。但「权力使人腐化」,私下的他却与党内同侪联手诈用公款、进行洗钱中饱私囊。不料当东窗事发,同侪纷纷与他切割,更强迫他一肩扛责,不甘自背黑锅的他,于是设下一关关骗局,展开强力反击…

◎获奖情况  

  第33届西班牙戈雅奖(2019)
  最佳影片(提名)
  最佳导演 罗德里戈·索罗戈延
  最佳男主角 安东尼奥·德·拉·托雷
  最佳男配角 路易斯·扎赫拉
  最佳女配角(提名) 阿娜·瓦格纳
  最佳新人男演员(提名) 弗朗西斯科·雷耶斯
  最佳原创剧本 罗德里戈·索罗戈延 / 伊莎贝尔·培尼亚
  最佳摄影(提名)
  最佳剪辑
  最佳制作人(提名)
  最佳音效
  最佳特效(提名)
  最佳原创音乐

  第66届圣塞巴斯蒂安国际电影节(2018)
  金贝壳奖(提名) 罗德里戈·索罗戈延
Video
ID                                       : 1
Format                                   : AVC
Format/Info                              : Advanced Video Codec
Format settings                          : CABAC / 5 Ref Frames
Format settings, CABAC                   : Yes
Format settings, Reference frames        : 5 frames
Codec ID                                 : V_MPEG4/ISO/AVC
Duration                                 : 2 h 11 min
Bit rate                                 : 8 889 kb/s
Width                                    : 1 920 pixels
Height                                   : 856 pixels
Display aspect ratio                     : 2.25:1
Frame rate mode                          : Constant
Frame rate                               : 23.976 (24000/1001/189150) FPS
Color space                              : YUV
Chroma subsampling                       : 4:2:0
Bit depth                                : 8 bits
Scan type                                : Progressive
Bits/(Pixel*Frame)                       : 0.226
Stream size                              : 8.16 GiB (93%)
Writing library                          : x264 core 155 r2901 7d0ff22
Encoding settings                        : cabac=1 / ref=5 / deblock=1:-3:-3 / analyse=0x3:0x133 / me=umh / subme=9 / psy=1 / psy_rd=1.00:0.00 / mixed_ref=1 / me_range=16 / chroma_me=1 / trellis=2 / 8x8dct=1 / cqm=0 / deadzone=21,11 / fast_pskip=0 / chroma_qp_offset=-2 / threads=24 / lookahead_threads=2 / sliced_threads=0 / nr=0 / decimate=1 / interlaced=0 / bluray_compat=0 / constrained_intra=0 / bframes=3 / b_pyramid=2 / b_adapt=1 / b_bias=0 / direct=3 / weightb=1 / open_gop=0 / weightp=2 / keyint=240 / keyint_min=24 / scenecut=40 / intra_refresh=0 / rc_lookahead=50 / rc=2pass / mbtree=1 / bitrate=8889 / ratetol=1.0 / qcomp=0.60 / qpmin=0 / qpmax=69 / qpstep=4 / cplxblur=20.0 / qblur=0.5 / ip_ratio=1.40 / aq=1:1.00
Language                                 : English
Default                                  : Yes
Forced                                   : No

Audio
ID                                       : 2
Format                                   : AC-3
Format/Info                              : Audio Coding 3
Commercial name                          : Dolby Digital
Codec ID                                 : A_AC3
Duration                                 : 2 h 11 min
Bit rate mode                            : Constant
Bit rate                                 : 640 kb/s
Channel(s)                               : 6 channels
Channel layout                           : L R C LFE Ls Rs
Sampling rate                            : 48.0 kHz
Frame rate                               : 31.250 FPS (1536 SPF)
Compression mode                         : Lossy
Stream size                              : 601 MiB (7%)
Language                                 : Spanish
Service kind                             : Complete Main
Default                                  : Yes
Forced                                   : No

Text
ID                                       : 3
Format                                   : UTF-8
Codec ID                                 : S_TEXT/UTF8
Codec ID/Info                            : UTF-8 Plain Text
Duration                                 : 2 h 6 min
Bit rate                                 : 69 b/s
Count of elements                        : 1904
Stream size                              : 64.0 KiB (0%)
Title                                    : English
Language                                 : English
Default                                  : Yes
Forced                                   : Yes

Menu
00:00:00.000                             : en:00:00:00.000
00:12:28.164                             : en:00:12:28.164
00:25:50.215                             : en:00:25:50.215
00:40:02.358                             : en:00:40:02.358
00:53:29.331                             : en:00:53:29.331
01:04:28.823                             : en:01:04:28.823
01:18:25.534                             : en:01:18:25.534
01:32:26.332                             : en:01:32:26.332
01:45:36.080                             : en:01:45:36.080
01:56:59.221                             : en:01:56:59.221




                                                                                                                                                                                                        
                                                                           
eb9202923971f863e3e7640277ba0889.zip (45.17 KB)

回复

使用道具 举报

小黑屋|西西电影论坛 ( 闽ICP备160050789号-1 )

所有资源来自网络采集,如果侵犯了您的权益,请发邮件至 [email protected],立即清除相关链接

GMT+8, 2020-8-15 13:05 , Processed in 0.101359 second(s), 27 queries .

Powered by Discuz! X3.2

© 2001-2013 Comsenz Inc.

快速回复 返回顶部 返回列表