西西电影论坛

 找回密码
 立即注册

狄仁杰之四大天王 Detective.Dee.The.Four.Heavenly.Kings.2018.LIMITED.1...

[复制链接]

电影下载 发表于 2020-7-31 12:57:52 | 显示全部楼层 |阅读模式
帖子完整标题:狄仁杰之四大天王 Detective.Dee.The.Four.Heavenly.Kings.2018.LIMITED.1080p.BluRay.x264-USURY 9.84GB




◎译  名 Detective Dee: The Four Heavenly Kings / 狄仁杰3
◎片  名 狄仁杰之四大天王
◎年  代 2018
◎产  地 中国大陆 / 中国香港
◎类  别 动作 / 悬疑 / 奇幻 / 武侠 / 古装
◎语  言 汉语普通话
◎上映日期 2018-07-27(中国大陆)
◎IMDb评分  6.4/10 from 2114 users
◎片  长 132分钟
◎导  演 徐克 Hark Tsui
◎编  剧 张家鲁 Chia-lu Chang / 徐克 Hark Tsui / 陈国富 Kuo-fu Chen
◎主  演 赵又廷 Mark Chao
       冯绍峰 Shaofeng Feng
       林更新 Gengxin Lin
       阮经天 Ethan Juan
       马思纯 Sichun Ma
       刘嘉玲 Carina Lau
       盛鉴 Chien Sheng
       杨一威 Yiwei Yang
       宝日夫 Bao Ri Fu
       张傲月 Aoyue Zhang
       孙蛟龙 Jiaolong Sun
       汪汐潮 Xichao Wang
       释胜钢 Shenggang Shi
       李炳雷 Binglei Li
       许明虎 Tiger Xu


◎标  签 奇幻 | 古装 | 武侠 | 魔幻 | 动作 | 悬疑 | 中国大陆 | 2018

◎简  介   

  狄仁杰(赵又廷 饰)大破神都龙王案后,高宗(盛鉴 饰)御赐神器亢龙锏,遭天后武则天(刘嘉玲 饰)嫉妒,天后为盗取亢龙锏陷害狄仁杰,召集了一帮会方术的“异人组”图谋不轨,并命令尉迟真金(冯绍峰 饰)带队。狄仁杰在医官沙陀忠(林更新 饰)的帮助下成功摆脱“异人组”迫害,并和尉迟真金商议和解,与此同时“异人组”刺客水月(马思纯 饰)却发现都城出现不明势力,在狄仁杰周旋于武则天的埋伏时,大唐陷入更深的危机,“封魔族”携异术登场,一场“屠魔”大战即将爆发……

◎获奖情况  

  第55届台北金马影展(2018)
  金马奖 最佳视觉效果(提名) 池明求 / 蔡洙应 / 朴英秀 / 前川英章

  第38届香港电影金像奖(2019)
  最佳摄影(提名) 蔡崇晖
  最佳剪接(提名) 徐克 / 李林
  最佳美术指导(提名) 李景文 / 赤塚佳仁
  最佳服装造型设计(提名) 余家安 / 利碧君
  最佳动作设计(提名) 林峰
  最佳音响效果(提名) 史蒂夫·伯吉斯
  最佳视觉效果(提名) 池明求 / 蔡洙应 / 朴英秀 / 前川英章

  第4届豆瓣电影年度榜单(2017)
  最值得期待的华语电影(提名)
Video
ID                                       : 1
Format                                   : AVC
Format/Info                              : Advanced Video Codec
Format settings                          : CABAC / 4 Ref Frames
Format settings, CABAC                   : Yes
Format settings, Reference frames        : 4 frames
Codec ID                                 : V_MPEG4/ISO/AVC
Duration                                 : 2 h 11 min
Bit rate                                 : 9 174 kb/s
Width                                    : 1 920 pixels
Height                                   : 1 040 pixels
Display aspect ratio                     : 1.85:1
Frame rate mode                          : Constant
Frame rate                               : 24.000 FPS
Color space                              : YUV
Chroma subsampling                       : 4:2:0
Bit depth                                : 8 bits
Scan type                                : Progressive
Bits/(Pixel*Frame)                       : 0.191
Stream size                              : 8.45 GiB (86%)
Writing library                          : x264 core 155 r2901 7d0ff22
Encoding settings                        : cabac=1 / ref=4 / deblock=1:-3:-3 / analyse=0x3:0x133 / me=umh / subme=9 / psy=1 / psy_rd=1.00:0.00 / mixed_ref=1 / me_range=16 / chroma_me=1 / trellis=2 / 8x8dct=1 / cqm=0 / deadzone=21,11 / fast_pskip=0 / chroma_qp_offset=-2 / threads=24 / lookahead_threads=2 / sliced_threads=0 / nr=0 / decimate=1 / interlaced=0 / bluray_compat=0 / constrained_intra=0 / bframes=3 / b_pyramid=2 / b_adapt=1 / b_bias=0 / direct=3 / weightb=1 / open_gop=0 / weightp=2 / keyint=240 / keyint_min=24 / scenecut=40 / intra_refresh=0 / rc_lookahead=50 / rc=2pass / mbtree=1 / bitrate=9174 / ratetol=1.0 / qcomp=0.60 / qpmin=0 / qpmax=69 / qpstep=4 / cplxblur=20.0 / qblur=0.5 / ip_ratio=1.40 / aq=1:1.00
Language                                 : English
Default                                  : Yes
Forced                                   : No

Audio
ID                                       : 2
Format                                   : DTS
Format/Info                              : Digital Theater Systems
Codec ID                                 : A_DTS
Duration                                 : 2 h 11 min
Bit rate mode                            : Constant
Bit rate                                 : 1 509 kb/s
Channel(s)                               : 6 channels
Channel layout                           : C L R Ls Rs LFE
Sampling rate                            : 48.0 kHz
Frame rate                               : 93.750 FPS (512 SPF)
Bit depth                                : 24 bits
Compression mode                         : Lossy
Stream size                              : 1.39 GiB (14%)
Language                                 : Chinese
Default                                  : Yes
Forced                                   : No

Text
ID                                       : 3
Format                                   : UTF-8
Codec ID                                 : S_TEXT/UTF8
Codec ID/Info                            : UTF-8 Plain Text
Duration                                 : 2 h 7 min
Bit rate                                 : 44 b/s
Count of elements                        : 1629
Stream size                              : 41.7 KiB (0%)
Title                                    : English
Language                                 : English
Default                                  : Yes
Forced                                   : Yes

Menu
00:00:00.000                             : en:00:00:00.000
00:09:40.750                             : en:00:09:40.750
00:17:55.250                             : en:00:17:55.250
00:26:05.042                             : en:00:26:05.042
00:37:59.583                             : en:00:37:59.583
00:46:15.917                             : en:00:46:15.917
01:00:41.708                             : en:01:00:41.708
01:08:50.458                             : en:01:08:50.458
01:17:11.417                             : en:01:17:11.417
01:25:24.458                             : en:01:25:24.458
01:35:17.125                             : en:01:35:17.125
01:43:23.500                             : en:01:43:23.500
01:53:10.167                             : en:01:53:10.167
02:03:56.583                             : en:02:03:56.583




                                                                                                                                                                                                        
                                                                  

7a49388723a68f6d5277c3b7b4083fba.zip (50.76 KB)

回复

使用道具 举报

小黑屋|西西电影论坛 ( 闽ICP备160050789号-1 )

所有资源来自网络采集,如果侵犯了您的权益,请发邮件至 [email protected],立即清除相关链接

GMT+8, 2020-8-15 12:16 , Processed in 0.119486 second(s), 27 queries .

Powered by Discuz! X3.2

© 2001-2013 Comsenz Inc.

快速回复 返回顶部 返回列表