西西电影论坛

 找回密码
 立即注册

以眼还眼 Eye.for.an.Eye.2019.1080p.BluRay.x264-USURY 7.65GB

[复制链接]

电影下载 发表于 2020-8-2 10:32:32 | 显示全部楼层 |阅读模式
-->
帖子完整标题:以眼还眼 Eye.for.an.Eye.2019.1080p.BluRay.x264-USURY 7.65GB




◎译  名 以眼还眼 / Eye for an Eye
◎片  名 Quien a hierro mata
◎年  代 2019
◎产  地 西班牙
◎类  别 剧情
◎语  言 西班牙语
◎上映日期 2019-08-30(西班牙)
◎片  长 107分钟
◎导  演 帕科·普拉萨 Paco Plaza
◎编  剧 豪尔赫·格力加耶切瓦利亚 Jorge Guerricaechevarría / Juan Gali?anes
◎主  演 路易斯·托萨尔 Luis Tosar
       意斯梅尔·马丁内斯 Ismael Martínez
       玛丽雅·瓦兹盖兹 María Vázquez
       塔玛拉·卡诺萨 Tamara Canosa
       塔马·诺瓦斯 Tamar Novas
       Xan Cejudo
       Enric Auquer
       Daniel Currás
       Rebeca Montero
       María Luisa Mayol
       Jessica Serna
       Xosé Manuel Esperante
       Víctor Duplá
       Xoel Fernández
       César Valdés
       Pepo Suevos
       Estíbaliz Veiga
       María Ba?obre
       Pablo Guisa Koestinger


◎标  签 西班牙 | 犯罪 | 剧情 | 复仇 | 人性 | 2019 | 西班牙电影 | 毒品

◎简  介   

  马里奥是位护士,他马上就要有第一个儿子。安东尼奥·帕丁是个知名的制毒师,但由于疾病,不得不依附他的家人。家族的生意现在由他的两个孩子,东尼和奇凯掌握,他俩马上要进行一项充满风险的贩毒行动。当他们的人生相交错时,所有人都选择了共同的道路:复仇。
  这是一个关于背叛,毒品,家庭争端与暴力的故事。

◎获奖情况  

  第34届西班牙戈雅奖(2020)
  最佳男主角(提名) 路易斯·托萨尔
  最佳新人男演员 恩里克.阿伍奇尔
  最佳音效(提名)
Video
ID                                       : 1
Format                                   : AVC
Format/Info                              : Advanced Video Codec
Format settings                          : CABAC / 5 Ref Frames
Format settings, CABAC                   : Yes
Format settings, Reference frames        : 5 frames
Codec ID                                 : V_MPEG4/ISO/AVC
Duration                                 : 1 h 48 min
Bit rate                                 : 8 627 kb/s
Width                                    : 1 920 pixels
Height                                   : 808 pixels
Display aspect ratio                     : 2.40:1
Frame rate mode                          : Constant
Frame rate                               : 24.000 FPS
Color space                              : YUV
Chroma subsampling                       : 4:2:0
Bit depth                                : 8 bits
Scan type                                : Progressive
Bits/(Pixel*Frame)                       : 0.232
Stream size                              : 6.51 GiB (85%)
Writing library                          : x264 core 157 r2969 d4099dd
Encoding settings                        : cabac=1 / ref=5 / deblock=1:-3:-3 / analyse=0x3:0x133 / me=umh / subme=9 / psy=1 / psy_rd=1.00:0.00 / mixed_ref=1 / me_range=16 / chroma_me=1 / trellis=2 / 8x8dct=1 / cqm=0 / deadzone=21,11 / fast_pskip=0 / chroma_qp_offset=-2 / threads=18 / lookahead_threads=1 / sliced_threads=0 / nr=0 / decimate=1 / interlaced=0 / bluray_compat=0 / constrained_intra=0 / bframes=3 / b_pyramid=2 / b_adapt=1 / b_bias=0 / direct=3 / weightb=1 / open_gop=0 / weightp=2 / keyint=240 / keyint_min=24 / scenecut=40 / intra_refresh=0 / rc_lookahead=50 / rc=2pass / mbtree=1 / bitrate=8627 / ratetol=1.0 / qcomp=0.60 / qpmin=0 / qpmax=69 / qpstep=4 / cplxblur=20.0 / qblur=0.5 / ip_ratio=1.40 / aq=1:1.00
Language                                 : English
Default                                  : Yes
Forced                                   : No

Audio
ID                                       : 2
Format                                   : DTS
Format/Info                              : Digital Theater Systems
Codec ID                                 : A_DTS
Duration                                 : 1 h 48 min
Bit rate mode                            : Constant
Bit rate                                 : 1 509 kb/s
Channel(s)                               : 6 channels
Channel layout                           : C L R Ls Rs LFE
Sampling rate                            : 48.0 kHz
Frame rate                               : 93.750 FPS (512 SPF)
Bit depth                                : 24 bits
Compression mode                         : Lossy
Stream size                              : 1.14 GiB (15%)
Language                                 : Spanish
Default                                  : Yes
Forced                                   : No

Text #1
ID                                       : 3
Format                                   : UTF-8
Codec ID                                 : S_TEXT/UTF8
Codec ID/Info                            : UTF-8 Plain Text
Duration                                 : 1 h 37 min
Bit rate                                 : 41 b/s
Count of elements                        : 912
Stream size                              : 29.7 KiB (0%)
Title                                    : English
Language                                 : English
Default                                  : Yes
Forced                                   : Yes

Text #2
ID                                       : 4
Format                                   : UTF-8
Codec ID                                 : S_TEXT/UTF8
Codec ID/Info                            : UTF-8 Plain Text
Duration                                 : 1 h 46 min
Bit rate                                 : 42 b/s
Count of elements                        : 967
Stream size                              : 33.4 KiB (0%)
Title                                    : French
Language                                 : French
Default                                  : No
Forced                                   : No

Menu
00:00:00.000                             : en:00:00:00.000
00:09:18.875                             : en:00:09:18.875
00:18:00.667                             : en:00:18:00.667
00:26:52.458                             : en:00:26:52.458
00:35:48.292                             : en:00:35:48.292
00:44:55.083                             : en:00:44:55.083
00:54:42.375                             : en:00:54:42.375
01:03:20.750                             : en:01:03:20.750
01:11:41.958                             : en:01:11:41.958
01:20:08.292                             : en:01:20:08.292
01:29:54.208                             : en:01:29:54.208
01:41:56.458                             : en:01:41:56.458




                                                                                                                                                                                                        
                                                                                                                                                                                                                                          
24dc24861e187aa9af73b6c99bc97800.zip (38.96 KB)

回复

使用道具 举报

小黑屋|西西电影论坛 ( 闽ICP备160050789号-1 )

所有资源来自网络采集,如果侵犯了您的权益,请发邮件至 [email protected],立即清除相关链接

GMT+8, 2020-8-15 12:33 , Processed in 0.100876 second(s), 27 queries .

Powered by Discuz! X3.2

© 2001-2013 Comsenz Inc.

快速回复 返回顶部 返回列表