西西电影论坛

 找回密码
 立即注册

瑜伽熊/反斗熊心 Yogi.Bear.2010.3D.1080p.BluRay.x264-GUACAMOLE 10.62GB

[复制链接]

电影下载 发表于 2020-8-22 17:23:11 | 显示全部楼层 |阅读模式
帖子完整标题:瑜伽熊/反斗熊心 Yogi.Bear.2010.3D.1080p.BluRay.x264-GUACAMOLE 10.62GB




◎译  名 瑜伽熊 / 反斗熊心(港) / 瑜珈熊(台)
◎片  名 Yogi Bear
◎年  代 2010
◎产  地 美国 / 新西兰
◎类  别 喜剧 / 动画 / 家庭 / 冒险
◎语  言 英语
◎上映日期 2010-12-17(美国)
◎IMDb评分  4.6/10 from 19991 users
◎片  长 80分钟
◎导  演 埃里克·布雷维格 Eric Brevig
◎编  剧 约书亚·斯特宁 Joshua Sternin / 杰弗里·文堤米利亚 Jeffrey Ventimilia / 布拉德·科普兰 Brad Copeland
◎主  演 安娜·法瑞丝 Anna Faris
       丹·艾克罗伊德 Dan Aykroyd
       贾斯汀·汀布莱克 Justin Timberlake
       汤姆·卡瓦纳夫 Tom Cavanagh
       T·J·米勒 T.J. Miller
       内森·科德里 Nathan Corddry
       安德鲁·达利 Andrew Daly
       乔希·罗伯特·汤普森 Josh Robert Thompson
       戴维·斯托特 David Stott
       格雷格·约翰逊 Greg Johnson
       克里斯蒂·奎利亚姆 Christy Quillam
       帕特里夏·奥尔德斯利 Patricia Aldersley
       蒂姆·麦克拉克伦 Tim McLachlan
       海登·弗农 Hayden Vernon
       迪恩·诺斯利 Dean Knowsley
       巴里·杜菲尔德 Barry Duffield
       迈克尔·莫里斯 Michael Morris
       威尔·华莱士 Will Wallace
       苏珊娜·斯尔皮克 Suzana Srpek


◎标  签 动画 | 冒险 | 喜剧 | 家庭

◎简  介   

  瑜伽熊(丹·艾克罗伊德 Dan Aykroyd 配音)和波波熊(贾斯汀·汀布莱克 Justin Timberlake 配音)是杰利石公园的人气动物,在风景怡人的杰利石公园里与众多动物小伙伴们一起生活,并为公园效力。然而时光荏苒,如今的杰利石公园正面临游客锐减的问题,与此同时,贪婪的布朗市长为了筹集资金填补赤字和为己所用,竟决定关闭杰利石公园,并出售土地。面对市长的阴谋和伙伴们的生存问题,瑜伽熊和波波熊决定联合起善良的瑞秋(安娜·法瑞丝 Anna Faris 配音),一同齐心协力,拯救公园。他们开始想尽办法吸引游客,恢复业绩,然而,事情却并非预想中那么简单……本片改编自1961年同名动画连续剧。

◎获奖情况  

  第13届美国青少年选择奖(2011)
  最佳动画配音(提名) 贾斯汀·汀布莱克
Video
ID                                       : 1
Format                                   : AVC
MultiView_Count                          : 2
MultiView_Layout                         : Side by Side (left eye first)
Format settings                          : CABAC / 4 Ref Frames
Format settings, CABAC                   : Yes
Format settings, Reference frames        : 4 frames
Codec ID                                 : V_MPEG4/ISO/AVC
Duration                                 : 1 h 20 min
Bit rate                                 : 14.8 Mb/s
Width                                    : 1 920 pixels
Height                                   : 1 080 pixels
Display aspect ratio                     : 16:9
Frame rate mode                          : Constant
Frame rate                               : 23.976 (24000/1001/189150) FPS
Color space                              : YUV
Chroma subsampling                       : 4:2:0
Bit depth                                : 8 bits
Scan type                                : Progressive
Bits/(Pixel*Frame)                       : 0.297
Stream size                              : 8.29 GiB (78%)
Writing library                          : x264 core 161 r3018 db0d417
Encoding settings                        : cabac=1 / ref=4 / deblock=1:-3:-3 / analyse=0x3:0x133 / me=umh / subme=9 / psy=1 / psy_rd=1.00:0.00 / mixed_ref=1 / me_range=32 / chroma_me=1 / trellis=2 / 8x8dct=1 / cqm=0 / deadzone=21,11 / fast_pskip=0 / chroma_qp_offset=-2 / threads=24 / lookahead_threads=2 / sliced_threads=0 / nr=0 / decimate=1 / interlaced=0 / bluray_compat=0 / constrained_intra=0 / bframes=3 / b_pyramid=2 / b_adapt=2 / b_bias=0 / direct=3 / weightb=1 / open_gop=0 / weightp=2 / keyint=250 / keyint_min=23 / scenecut=40 / intra_refresh=0 / rc=crf / mbtree=0 / crf=18.0 / qcomp=0.60 / qpmin=0 / qpmax=69 / qpstep=4 / ip_ratio=1.40 / pb_ratio=1.30 / aq=3:0.80
Default                                  : Yes
Forced                                   : No
Color range                              : Limited
Color primaries                          : BT.709
Transfer characteristics                 : BT.709
Matrix coefficients                      : BT.709

Audio
ID                                       : 2
Format                                   : DTS XLL
Format/Info                              : Digital Theater Systems
Commercial name                          : DTS-HD Master Audio
Codec ID                                 : A_DTS
Duration                                 : 1 h 20 min
Bit rate mode                            : Variable
Bit rate                                 : 3 997 kb/s
Channel(s)                               : 6 channels
Channel layout                           : C L R Ls Rs LFE
Sampling rate                            : 48.0 kHz
Frame rate                               : 93.750 FPS (512 SPF)
Bit depth                                : 24 bits
Compression mode                         : Lossless
Stream size                              : 2.25 GiB (21%)
Language                                 : English
Default                                  : Yes
Forced                                   : No

Text #1
ID                                       : 3
Format                                   : PGS
Muxing mode                              : zlib
Codec ID                                 : S_HDMV/PGS
Codec ID/Info                            : Picture based subtitle format used on BDs/HD-DVDs
Duration                                 : 1 h 20 min
Bit rate                                 : 73.4 kb/s
Count of elements                        : 2646
Stream size                              : 42.0 MiB (0%)
Language                                 : English
Default                                  : No
Forced                                   : No

Text #2
ID                                       : 4
Format                                   : PGS
Muxing mode                              : zlib
Codec ID                                 : S_HDMV/PGS
Codec ID/Info                            : Picture based subtitle format used on BDs/HD-DVDs
Duration                                 : 1 h 20 min
Bit rate                                 : 58.9 kb/s
Count of elements                        : 2356
Stream size                              : 33.7 MiB (0%)
Language                                 : French
Default                                  : No
Forced                                   : No

Text #3
ID                                       : 5
Format                                   : PGS
Muxing mode                              : zlib
Codec ID                                 : S_HDMV/PGS
Codec ID/Info                            : Picture based subtitle format used on BDs/HD-DVDs
Duration                                 : 1 h 20 min
Bit rate                                 : 60.6 kb/s
Count of elements                        : 2466
Stream size                              : 34.7 MiB (0%)
Language                                 : Korean
Default                                  : No
Forced                                   : No

Text #4
ID                                       : 6
Format                                   : PGS
Muxing mode                              : zlib
Codec ID                                 : S_HDMV/PGS
Codec ID/Info                            : Picture based subtitle format used on BDs/HD-DVDs
Duration                                 : 1 h 20 min
Bit rate                                 : 66.7 kb/s
Count of elements                        : 2436
Stream size                              : 38.2 MiB (0%)
Language                                 : Spanish
Default                                  : No
Forced                                   : No

Text #5
ID                                       : 7
Format                                   : PGS
Muxing mode                              : zlib
Codec ID                                 : S_HDMV/PGS
Codec ID/Info                            : Picture based subtitle format used on BDs/HD-DVDs
Duration                                 : 1 h 20 min
Bit rate                                 : 68.4 kb/s
Count of elements                        : 2624
Stream size                              : 39.2 MiB (0%)
Language                                 : Portuguese
Default                                  : No
Forced                                   : No

Menu
00:00:00.000                             : en:Kapitel 01
00:12:01.637                             : en:Kapitel 02
00:20:53.085                             : en:Kapitel 03
00:30:57.230                             : en:Kapitel 04
00:41:42.791                             : en:Kapitel 05
00:51:03.935                             : en:Kapitel 06
00:59:09.128                             : en:Kapitel 07
01:12:53.786                             : en:Kapitel 08




                                                                                                                                                                                                        
                                                                                                                                                                                                                                                                                                                                                                                                                                                                                                                                                                                                                                                                                                                                    
d2a2d0314503195b272459c529d316d6.zip (53.81 KB)

回复

使用道具 举报

小黑屋|西西电影论坛 ( 闽ICP备160050789号-1 )

所有资源来自网络采集,如果侵犯了您的权益,请发邮件至 [email protected],立即清除相关链接

GMT+8, 2020-10-26 23:11 , Processed in 0.112538 second(s), 27 queries .

Powered by Discuz! X3.2

© 2001-2013 Comsenz Inc.

快速回复 返回顶部 返回列表