西西电影论坛

 找回密码
 立即注册

[BD-4K] 血书 Books.of.Blood.2020.2160p.HULU.WEBRip.x265.10bit.SDR.DDP5.1-NTG 10.87GB

[复制链接]

电影下载 发表于 2020-10-8 20:55:20 | 显示全部楼层 |阅读模式
帖子完整标题:血书 Books.of.Blood.2020.2160p.HULU.WEBRip.x265.10bit.SDR.DDP5.1-NTG 10.87GB




◎译  名 血书
◎片  名 Books of Blood
◎年  代 2020
◎产  地 美国
◎类  别 剧情 / 科幻 / 悬疑 / 恐怖
◎语  言 英语
◎上映日期 2020-10-07(美国)
◎导  演 布兰农·布拉加 Brannon Braga
◎编  剧 克莱夫·巴克 Clive Barker / 布兰农·布拉加 Brannon Braga / 亚当·西蒙 Adam Simon
◎主  演 布丽特·罗伯森 Britt Robertson
       安娜·弗莱尔 Anna Friel
       拉菲·格拉沃恩 Rafi Gavron
       尤尔·瓦斯克斯 Yul Vazquez
       萨阿德·西迪基 Saad Siddiqui
       李康宁 Cory Lee
       谢默斯·帕特森 Seamus Patterson
       伊桑·布朗 Ethan Browne

◎标  签 恐怖 | 美国 | 悬疑 | 科幻 | 2020 | 改编 | 剧情 | 美国电影

◎简  介

  改编自作家克莱夫·巴克同名小说,穿越时空纠结的三个故事进入未知和禁地的旅程。
Video
ID                                       : 1
Format                                   : HEVC
Format/Info                              : High Efficiency Video Coding
Codec ID                                 : V_MPEGH/ISO/HEVC
Duration                                 : 1 h 47 min
Bit rate                                 : 14.2 Mb/s
Width                                    : 3 840 pixels
Height                                   : 2 160 pixels
Display aspect ratio                     : 16:9
Frame rate mode                          : Constant
Frame rate                               : 23.976 (24000/1001/189150) FPS
Color space                              : YUV
Chroma subsampling                       : 4:2:0
Bit depth                                : 10 bits
Bits/(Pixel*Frame)                       : 0.072
Stream size                              : 10.7 GiB (98%)
Default                                  : Yes
Forced                                   : No

Audio
ID                                       : 2
Format                                   : E-AC-3
Format/Info                              : Enhanced AC-3
Commercial name                          : Dolby Digital Plus
Codec ID                                 : A_EAC3
Duration                                 : 1 h 47 min
Bit rate mode                            : Constant
Bit rate                                 : 256 kb/s
Channel(s)                               : 6 channels
Channel layout                           : L R C LFE Ls Rs
Sampling rate                            : 48.0 kHz
Frame rate                               : 31.250 FPS (1536 SPF)
Compression mode                         : Lossy
Stream size                              : 197 MiB (2%)
Language                                 : English
Service kind                             : Complete Main
Default                                  : Yes
Forced                                   : No

Text #1
ID                                       : 3
Format                                   : UTF-8
Codec ID                                 : S_TEXT/UTF8
Codec ID/Info                            : UTF-8 Plain Text
Duration                                 : 1 h 46 min
Bit rate                                 : 53 b/s
Count of elements                        : 1626
Stream size                              : 42.1 KiB (0%)
Title                                    : SDH
Language                                 : English
Default                                  : No
Forced                                   : No

Text #2
ID                                       : 4
Format                                   : UTF-8
Codec ID                                 : S_TEXT/UTF8
Codec ID/Info                            : UTF-8 Plain Text
Duration                                 : 1 h 46 min
Bit rate                                 : 53 b/s
Count of elements                        : 1595
Stream size                              : 41.8 KiB (0%)
Language                                 : Spanish
Default                                  : No
Forced                                   : No

Menu
01:44:57.011                             : en:Credits





3834c86f818b3832fb8199651dc97f6d.zip (55.06 KB)

回复

使用道具 举报

小黑屋|西西电影论坛 ( 闽ICP备160050789号-1 )

所有资源来自网络采集,如果侵犯了您的权益,请发邮件至 [email protected],立即清除相关链接

GMT+8, 2020-10-23 16:03 , Processed in 0.116094 second(s), 27 queries .

Powered by Discuz! X3.2

© 2001-2013 Comsenz Inc.

快速回复 返回顶部 返回列表