西西电影论坛

 找回密码
 立即注册

别害怕 Never.Fear.1950.720p.BluRay.x264-BiPOLAR 4.99GB

[复制链接]

电影下载 发表于 2020-10-11 12:41:08 | 显示全部楼层 |阅读模式
帖子完整标题:别害怕 Never.Fear.1950.720p.BluRay.x264-BiPOLAR 4.99GB




◎译  名 别害怕/The Young Lovers
◎片  名 Never Fear
◎年  代 1949
◎产  地 美国
◎类  别 剧情
◎语  言 英语
◎上映日期 1949-12-29
◎片  长 USA: 82 分钟
◎导  演 艾达·卢皮诺 Ida Lupino
◎编  剧 艾达·卢皮诺 Ida Lupino / 科利尔·扬 Collier Young
◎主  演 莎莉·佛瑞斯特 Sally Forrest
       基弗·布拉赛勒 Keefe Brasselle
       休·欧布莱恩 Hugh O'Brian
       Stanley Waxman
       凯文·欧莫里森 Kevin O'Morrison
       Eve Miller
       Jerry Hausner
       Herbert Butterfield
       劳伦斯·多布金 Lawrence Dobkin

◎标  签 美国 | 爱情 | Ida_Lupino | 美國 | 1949 | 1940s | 1940S | 蓝光

◎简  介

  暂无相关剧情介绍
Video
ID                                       : 1
Format                                   : AVC
Format/Info                              : Advanced Video Codec
Format settings                          : CABAC / 12 Ref Frames
Format settings, CABAC                   : Yes
Format settings, Reference frames        : 12 frames
Codec ID                                 : V_MPEG4/ISO/AVC
Duration                                 : 1 h 21 min
Bit rate                                 : 8 303 kb/s
Width                                    : 960 pixels
Height                                   : 720 pixels
Display aspect ratio                     : 4:3
Frame rate mode                          : Constant
Frame rate                               : 23.976 (24000/1001/189150) FPS
Color space                              : YUV
Chroma subsampling                       : 4:2:0
Bit depth                                : 8 bits
Scan type                                : Progressive
Bits/(Pixel*Frame)                       : 0.501
Stream size                              : 4.72 GiB (95%)
Writing library                          : x264 core 161 r3018 db0d417
Encoding settings                        : cabac=1 / ref=12 / deblock=1:-3:-3 / analyse=0x3:0x133 / me=umh / subme=10 / psy=1 / psy_rd=1.00:0.15 / mixed_ref=1 / me_range=24 / chroma_me=1 / trellis=2 / 8x8dct=1 / cqm=0 / deadzone=21,11 / fast_pskip=1 / chroma_qp_offset=-3 / threads=18 / lookahead_threads=3 / sliced_threads=0 / nr=0 / decimate=1 / interlaced=0 / bluray_compat=0 / constrained_intra=0 / bframes=8 / b_pyramid=2 / b_adapt=2 / b_bias=0 / direct=3 / weightb=1 / open_gop=0 / weightp=2 / keyint=250 / keyint_min=23 / scenecut=40 / intra_refresh=0 / rc_lookahead=60 / rc=crf / mbtree=1 / crf=16.5 / qcomp=0.60 / qpmin=0 / qpmax=69 / qpstep=4 / ip_ratio=1.40 / aq=3:0.50
Language                                 : English
Default                                  : Yes
Forced                                   : No

Audio #1
ID                                       : 2
Format                                   : FLAC
Format/Info                              : Free Lossless Audio Codec
Codec ID                                 : A_FLAC
Duration                                 : 1 h 21 min
Bit rate mode                            : Variable
Bit rate                                 : 322 kb/s
Channel(s)                               : 2 channels
Channel layout                           : L R
Sampling rate                            : 48.0 kHz
Frame rate                               : 11.719 FPS (4096 SPF)
Bit depth                                : 16 bits
Compression mode                         : Lossless
Stream size                              : 188 MiB (4%)
Title                                    : English
Writing library                          : libFLAC 1.2.1 (UTC 2007-09-17)
Language                                 : English
Default                                  : Yes
Forced                                   : No

Audio #2
ID                                       : 3
Format                                   : AAC LC
Format/Info                              : Advanced Audio Codec Low Complexity
Codec ID                                 : A_AAC-2
Duration                                 : 1 h 21 min
Bit rate                                 : 117 kb/s
Channel(s)                               : 2 channels
Channel layout                           : L R
Sampling rate                            : 48.0 kHz
Frame rate                               : 46.875 FPS (1024 SPF)
Compression mode                         : Lossy
Delay relative to video                  : 9 ms
Stream size                              : 68.1 MiB (1%)
Title                                    : English Commentary by Alexandra Heller-Nicholas
Language                                 : English
Default                                  : No
Forced                                   : No

Text #1
ID                                       : 4
Format                                   : UTF-8
Codec ID                                 : S_TEXT/UTF8
Codec ID/Info                            : UTF-8 Plain Text
Duration                                 : 1 h 18 min
Bit rate                                 : 71 b/s
Count of elements                        : 1187
Stream size                              : 40.7 KiB (0%)
Title                                    : English
Language                                 : English
Default                                  : No
Forced                                   : No

Text #2
ID                                       : 5
Format                                   : UTF-8
Codec ID                                 : S_TEXT/UTF8
Codec ID/Info                            : UTF-8 Plain Text
Duration                                 : 1 h 18 min
Bit rate                                 : 72 b/s
Count of elements                        : 1217
Stream size                              : 41.7 KiB (0%)
Title                                    : English SDH
Language                                 : English
Default                                  : No
Forced                                   : No

Text #3
ID                                       : 6
Format                                   : PGS
Muxing mode                              : zlib
Codec ID                                 : S_HDMV/PGS
Codec ID/Info                            : Picture based subtitle format used on BDs/HD-DVDs
Duration                                 : 1 h 18 min
Bit rate                                 : 17.0 kb/s
Count of elements                        : 2434
Stream size                              : 9.51 MiB (0%)
Title                                    : English SDH
Language                                 : English
Default                                  : No
Forced                                   : No

Menu
00:00:00.000                             : en:00:00:00.000
00:12:36.130                             : en:00:12:36.130
00:17:47.692                             : en:00:17:47.692
00:27:58.302                             : en:00:27:58.302
00:37:54.606                             : en:00:37:54.606
00:55:28.116                             : en:00:55:28.116
01:01:37.193                             : en:01:01:37.193
01:15:01.038                             : en:01:15:01.038




                                                                                                                                                                                                        


2a0044a15e6c7a90a7f6c51e535e4f82.zip (50.54 KB)

回复

使用道具 举报

小黑屋|西西电影论坛 ( 闽ICP备160050789号-1 )

所有资源来自网络采集,如果侵犯了您的权益,请发邮件至 [email protected],立即清除相关链接

GMT+8, 2020-10-21 01:40 , Processed in 0.110272 second(s), 27 queries .

Powered by Discuz! X3.2

© 2001-2013 Comsenz Inc.

快速回复 返回顶部 返回列表