西西电影论坛

 找回密码
 立即注册

传说在下午,有时会遇到吸血鬼. Emotion.1966.720p.BluRay.x264-BiPOL...

[复制链接]

电影下载 发表于 2020-10-11 12:41:08 | 显示全部楼层 |阅读模式
帖子完整标题:传说在下午,有时会遇到吸血鬼. Emotion.1966.720p.BluRay.x264-BiPOLAR 2.18GB




◎译  名 传说在下午,有时会遇到吸血鬼.
◎片  名 EMOTION 伝説の午後 いつか見たドラキュラ
◎年  代 1966
◎产  地 日本
◎类  别 短片 / 奇幻
◎语  言 日语
◎片  长 39分钟
◎导  演 大林宣彦 Nobuhiko Obayashi
◎编  剧 大林宣彦 Nobuhiko Obayashi

◎标  签 日本 | 短片 | 大林宣彦 | 实验 | 大林宣彥 | 1960s | 奇幻 | 日本电影

◎简  介

  Experimental short film depicting the life, perhaps real, perhaps a dream, of a young girl named Emi. Emi travels to the city where she encounters her counterpart, Sari, and falls in love with...a vampire?
Video
ID                                       : 1
Format                                   : AVC
Format settings                          : CABAC / 12 Ref Frames
Format settings, CABAC                   : Yes
Format settings, Reference frames        : 12 frames
Codec ID                                 : V_MPEG4/ISO/AVC
Duration                                 : 39 min 15 s
Bit rate                                 : 7 768 kb/s
Width                                    : 948 pixels
Height                                   : 720 pixels
Display aspect ratio                     : 4:3
Frame rate mode                          : Constant
Frame rate                               : 23.976 (24000/1001/189150) FPS
Color space                              : YUV
Chroma subsampling                       : 4:2:0
Bit depth                                : 8 bits
Scan type                                : Progressive
Bits/(Pixel*Frame)                       : 0.475
Stream size                              : 2.13 GiB (98%)
Writing library                          : x264 core 161 r3018 db0d417
Encoding settings                        : cabac=1 / ref=12 / deblock=1:-3:-3 / analyse=0x3:0x133 / me=umh / subme=10 / psy=1 / psy_rd=1.00:0.15 / mixed_ref=1 / me_range=24 / chroma_me=1 / trellis=2 / 8x8dct=1 / cqm=0 / deadzone=21,11 / fast_pskip=1 / chroma_qp_offset=-3 / threads=18 / lookahead_threads=3 / sliced_threads=0 / nr=0 / decimate=1 / interlaced=0 / bluray_compat=0 / constrained_intra=0 / bframes=8 / b_pyramid=2 / b_adapt=2 / b_bias=0 / direct=3 / weightb=1 / open_gop=0 / weightp=2 / keyint=250 / keyint_min=23 / scenecut=40 / intra_refresh=0 / rc_lookahead=60 / rc=crf / mbtree=1 / crf=17.0 / qcomp=0.60 / qpmin=0 / qpmax=69 / qpstep=4 / ip_ratio=1.40 / aq=3:0.60
Language                                 : English
Default                                  : Yes
Forced                                   : No

Audio
ID                                       : 2
Format                                   : AC-3
Format/Info                              : Audio Coding 3
Commercial name                          : Dolby Digital
Codec ID                                 : A_AC3
Duration                                 : 39 min 15 s
Bit rate mode                            : Constant
Bit rate                                 : 192 kb/s
Channel(s)                               : 1 channel
Channel layout                           : C
Sampling rate                            : 48.0 kHz
Frame rate                               : 31.250 FPS (1536 SPF)
Compression mode                         : Lossy
Stream size                              : 53.9 MiB (2%)
Language                                 : Japanese
Service kind                             : Complete Main
Default                                  : Yes
Forced                                   : No

Text #1
ID                                       : 3
Format                                   : UTF-8
Codec ID                                 : S_TEXT/UTF8
Codec ID/Info                            : UTF-8 Plain Text
Duration                                 : 38 min 49 s
Bit rate                                 : 19 b/s
Count of elements                        : 191
Stream size                              : 5.69 KiB (0%)
Title                                    : English forced
Language                                 : English
Default                                  : Yes
Forced                                   : Yes

Text #2
ID                                       : 4
Format                                   : PGS
Muxing mode                              : zlib
Codec ID                                 : S_HDMV/PGS
Codec ID/Info                            : Picture based subtitle format used on BDs/HD-DVDs
Duration                                 : 38 min 49 s
Bit rate                                 : 4 348 b/s
Count of elements                        : 382
Stream size                              : 1.21 MiB (0%)
Title                                    : English forced
Language                                 : English
Default                                  : No
Forced                                   : No

Menu
00:00:00.000                             : en:00:00:00.000
00:02:52.005                             : en:00:02:52.005
00:08:03.483                             : en:00:08:03.483
00:15:30.763                             : en:00:15:30.763
00:20:44.710                             : en:00:20:44.710
00:28:22.534                             : en:00:28:22.534
00:30:17.315                             : en:00:30:17.315




5870af537485519c4a51cfede38455ce.zip (22.51 KB)

回复

使用道具 举报

小黑屋|西西电影论坛 ( 闽ICP备160050789号-1 )

所有资源来自网络采集,如果侵犯了您的权益,请发邮件至 [email protected],立即清除相关链接

GMT+8, 2020-10-21 00:51 , Processed in 0.119868 second(s), 27 queries .

Powered by Discuz! X3.2

© 2001-2013 Comsenz Inc.

快速回复 返回顶部 返回列表