西西电影论坛

 找回密码
 立即注册

米歇尔先生的狗 Mr.Michels.Dog.1977.720p.BluRay.x264-BiPOLAR 323.66MB

[复制链接]

电影下载 发表于 2020-10-11 12:41:08 | 显示全部楼层 |阅读模式
帖子完整标题:米歇尔先生的狗 Mr.Michels.Dog.1977.720p.BluRay.x264-BiPOLAR 323.66MB




◎译  名 米歇尔先生的狗/Mr. Michel's Dog
◎片  名 Le chien de Monsieur Michel
◎年  代 1977
◎产  地 法国
◎类  别 短片
◎语  言 法语
◎上映日期 1977
◎片  长 15分钟
◎导  演 让-雅克·贝奈克斯 Jean-Jacques Beineix
◎编  剧 安德烈·卢耶 André Rouyer / 让-雅克·贝奈克斯 Jean-Jacques Beineix
◎主  演 伊夫·阿封索 Yves Afonso
       德尼兹·佩隆 Denise Péron

◎标  签 短片 | 法国 | Jean-Jacques_Beineix | 电影 | 法国电影 | 1970s

◎简  介

  A short fiction about an impoverished man and his imaginary dog. Beineix' first film.
Video
ID                                       : 1
Format                                   : AVC
Format settings                          : CABAC / 9 Ref Frames
Format settings, CABAC                   : Yes
Format settings, Reference frames        : 9 frames
Codec ID                                 : V_MPEG4/ISO/AVC
Duration                                 : 16 min 0 s
Bit rate                                 : 2 629 kb/s
Width                                    : 1 214 pixels
Height                                   : 720 pixels
Display aspect ratio                     : 5:3
Frame rate mode                          : Constant
Frame rate                               : 23.976 (24000/1001/189150) FPS
Color space                              : YUV
Chroma subsampling                       : 4:2:0
Bit depth                                : 8 bits
Scan type                                : Progressive
Bits/(Pixel*Frame)                       : 0.125
Stream size                              : 301 MiB (93%)
Writing library                          : x264 core 161 r3018 db0d417
Encoding settings                        : cabac=1 / ref=9 / deblock=1:-3:-3 / analyse=0x3:0x133 / me=umh / subme=10 / psy=1 / psy_rd=1.00:0.15 / mixed_ref=1 / me_range=24 / chroma_me=1 / trellis=2 / 8x8dct=1 / cqm=0 / deadzone=21,11 / fast_pskip=1 / chroma_qp_offset=-3 / threads=18 / lookahead_threads=3 / sliced_threads=0 / nr=0 / decimate=1 / interlaced=0 / bluray_compat=0 / constrained_intra=0 / bframes=8 / b_pyramid=2 / b_adapt=2 / b_bias=0 / direct=3 / weightb=1 / open_gop=0 / weightp=2 / keyint=250 / keyint_min=23 / scenecut=40 / intra_refresh=0 / rc_lookahead=60 / rc=crf / mbtree=1 / crf=18.0 / qcomp=0.60 / qpmin=0 / qpmax=69 / qpstep=4 / ip_ratio=1.40 / aq=3:0.60
Language                                 : English
Default                                  : Yes
Forced                                   : No

Audio
ID                                       : 2
Format                                   : AC-3
Format/Info                              : Audio Coding 3
Commercial name                          : Dolby Digital
Codec ID                                 : A_AC3
Duration                                 : 16 min 0 s
Bit rate mode                            : Constant
Bit rate                                 : 192 kb/s
Channel(s)                               : 1 channel
Channel layout                           : C
Sampling rate                            : 48.0 kHz
Frame rate                               : 31.250 FPS (1536 SPF)
Compression mode                         : Lossy
Stream size                              : 22.0 MiB (7%)
Language                                 : French
Service kind                             : Complete Main
Default                                  : Yes
Forced                                   : No

Text #1
ID                                       : 3
Format                                   : UTF-8
Codec ID                                 : S_TEXT/UTF8
Codec ID/Info                            : UTF-8 Plain Text
Duration                                 : 14 min 34 s
Bit rate                                 : 39 b/s
Count of elements                        : 129
Stream size                              : 4.26 KiB (0%)
Title                                    : English
Language                                 : English
Default                                  : Yes
Forced                                   : Yes

Text #2
ID                                       : 4
Format                                   : PGS
Muxing mode                              : zlib
Codec ID                                 : S_HDMV/PGS
Codec ID/Info                            : Picture based subtitle format used on BDs/HD-DVDs
Duration                                 : 14 min 34 s
Bit rate                                 : 5 689 b/s
Count of elements                        : 258
Stream size                              : 607 KiB (0%)
Title                                    : English
Language                                 : English
Default                                  : No
Forced                                   : No




                                                                                                                                                                                                        


cbf8fdd8df58e8171ffe0381488eb286.zip (7.8 KB)

回复

使用道具 举报

小黑屋|西西电影论坛 ( 闽ICP备160050789号-1 )

所有资源来自网络采集,如果侵犯了您的权益,请发邮件至 [email protected],立即清除相关链接

GMT+8, 2020-10-30 01:25 , Processed in 0.109749 second(s), 27 queries .

Powered by Discuz! X3.2

© 2001-2013 Comsenz Inc.

快速回复 返回顶部 返回列表