西西电影论坛

 找回密码
 立即注册

[BD-4K] 我是女人/铿锵玫瑰 I.Am.Woman.2019.2160p.STAN.WEBRip.AAC5.1.x265-playW...

[复制链接]

电影下载 发表于 2020-10-11 12:51:58 | 显示全部楼层 |阅读模式
帖子完整标题:我是女人/铿锵玫瑰 I.Am.Woman.2019.2160p.STAN.WEBRip.AAC5.1.x265-playWEB 11.48GB




◎译  名 我是女人/铿锵玫瑰
◎片  名 I Am Woman
◎年  代 2019
◎产  地 澳大利亚
◎类  别 传记
◎语  言 英语
◎上映日期 2019-09-05(多伦多电影节) / 2020-09-11(美国)
◎IMDb评分  6/10 from 722 users
◎片  长 116分钟
◎编  剧 艾玛·延森 Emma Jensen
◎主  演 埃文·彼得斯 Evan Peters
       蒂尔达·格哈姆-哈维 Tilda Cobham-Hervey
       丹妮尔·麦克唐纳 Danielle Macdonald
       马修·卡德罗普 Matthew Cardarople
       达斯蒂·斯隆格 Dusty Sorg
       Rita Rani
       Frank Violi

◎标  签 澳大利亚 | 传记 | 第24届釜山国际电影节 | 海伦·瑞迪 | 传记片 | 2019TIFF | 电影院 | 电影

◎简  介

  埃文·彼得斯出演讲述澳洲女歌手海伦·瑞迪的传记片[我是女人](I Am Woman,暂译)。导演Unjoo Moon,影片聚焦上世纪七十年代澳洲知名女歌手海伦·瑞迪,片名出自瑞迪演唱的同名歌曲,该歌曲曾被选为当时女权运动的主题曲。蒂尔达·格哈姆-哈维饰瑞迪,埃文·彼得斯饰瑞迪的丈夫杰夫·沃尔德,也是她的经纪人。影片将在澳大利亚开机。
Video
ID                                       : 1
Format                                   : HEVC
Format/Info                              : High Efficiency Video Coding
Codec ID                                 : V_MPEGH/ISO/HEVC
Duration                                 : 1 h 56 min
Bit rate                                 : 13.7 Mb/s
Width                                    : 3 840 pixels
Height                                   : 2 160 pixels
Display aspect ratio                     : 16:9
Frame rate mode                          : Constant
Frame rate                               : 24.000 FPS
Color space                              : YUV
Chroma subsampling                       : 4:2:0
Bit depth                                : 8 bits
Bits/(Pixel*Frame)                       : 0.069
Stream size                              : 11.1 GiB (97%)
Default                                  : Yes
Forced                                   : No
Color range                              : Limited
Color primaries                          : BT.709
Transfer characteristics                 : BT.709
Matrix coefficients                      : BT.709

Audio
ID                                       : 2
Format                                   : AAC LC
Format/Info                              : Advanced Audio Codec Low Complexity
Codec ID                                 : A_AAC-2
Duration                                 : 1 h 56 min
Bit rate                                 : 445 kb/s
Channel(s)                               : 6 channels
Channel layout                           : C L R Ls Rs LFE
Sampling rate                            : 48.0 kHz
Frame rate                               : 46.875 FPS (1024 SPF)
Compression mode                         : Lossy
Stream size                              : 371 MiB (3%)
Language                                 : English
Default                                  : Yes
Forced                                   : No

Text
ID                                       : 3
Format                                   : UTF-8
Codec ID                                 : S_TEXT/UTF8
Codec ID/Info                            : UTF-8 Plain Text
Duration                                 : 1 h 52 min
Bit rate                                 : 69 b/s
Count of elements                        : 1748
Stream size                              : 57.0 KiB (0%)
Language                                 : English
Default                                  : No
Forced                                   : No




                                                                                                                                                                                                        
                                                                                                                                                                                                                                          
eb2ad7a87001b83a5e5c3a958148a914.zip (58.85 KB)

回复

使用道具 举报

小黑屋|西西电影论坛 ( 闽ICP备160050789号-1 )

所有资源来自网络采集,如果侵犯了您的权益,请发邮件至 [email protected],立即清除相关链接

GMT+8, 2020-10-31 09:32 , Processed in 0.103477 second(s), 27 queries .

Powered by Discuz! X3.2

© 2001-2013 Comsenz Inc.

快速回复 返回顶部 返回列表