西西电影论坛

 找回密码
 立即注册

水晶的结构 The.Structure.of.Crystal.1969.720p.BluRay.x264-BiPOLAR 3.83GB

[复制链接]

电影下载 发表于 2020-10-12 13:07:13 | 显示全部楼层 |阅读模式
帖子完整标题:水晶的结构 The.Structure.of.Crystal.1969.720p.BluRay.x264-BiPOLAR 3.83GB




◎译  名 水晶的结构/Struktura krysztalu/The Structure of Crystal
◎片  名 Struktura kryszta?u
◎年  代 1969
◎产  地 波兰
◎类  别 剧情
◎语  言 波兰语
◎上映日期 1969-10-14
◎IMDb评分  7.2/10 from 983 users
◎片  长 74 分钟
◎导  演 克日什托夫·扎努西 Krzysztof Zanussi
◎编  剧 克日什托夫·扎努西 Krzysztof Zanussi
◎主  演 芭芭拉·弗热辛斯卡 Barbara Wrzesinska
       安杰伊·扎尔内茨基 Andrzej Zarnecki
       扬·米什沃维奇 Jan Myslowicz
       Wladyslaw Jarema
       达尼尔·奥勒布里斯基 Daniel Olbrychski

◎标  签 波兰 | 波兰电影 | 1969 | 克里日托夫·扎努西 | 1960s | KrzysztofZanussi | 东欧 | 黑白

◎简  介

  華沙大學助理教授馬立克長途跋涉,去探訪闊別五年的好朋友兼大學同學楊,目的是要請楊返回大學工作。37歲的楊放棄了大學教席,在一個孤立的氣象站工作,與任職小學教師的妻子安娜及他的祖父住在偏遠的農村小屋,家中甚至沒有一個電視機。當地人亦沒有什麼文化生活,與楊格格不入。
  
  馬立克是個前途燦爛的物理學家,專長是研究人工水晶體,曾在哈佛大學和莫斯科留學兩年半。馬立克已離婚,採取玩世不恭的態度對待工作和愛情。他認為付出的必須要有回報,他無法理解為何楊可以在這貧瘠的地區滿足自己。
  
  馬立克對安娜描述外地的風光,以幻燈片證明美國的美好生活和蘇聯共產主義的弊端,引起從小在窮鄉僻壤長大的安娜憧憬,兩人甚至幾乎發生戀情,但她最終還是把他送走。
  
  影片藉馬立克與楊對人生、愛情和科學的不同態度,探討知識分子應如何在社會上發揮功能,並提出了深刻的哲學問題。
Video
ID                                       : 1
Format                                   : AVC
Format/Info                              : Advanced Video Codec
Format settings                          : CABAC / 9 Ref Frames
Format settings, CABAC                   : Yes
Format settings, Reference frames        : 9 frames
Codec ID                                 : V_MPEG4/ISO/AVC
Duration                                 : 1 h 14 min
Bit rate                                 : 6 915 kb/s
Width                                    : 1 280 pixels
Height                                   : 720 pixels
Display aspect ratio                     : 16:9
Frame rate mode                          : Constant
Frame rate                               : 25.000 FPS
Color space                              : YUV
Chroma subsampling                       : 4:2:0
Bit depth                                : 8 bits
Scan type                                : Progressive
Bits/(Pixel*Frame)                       : 0.300
Stream size                              : 3.62 GiB (95%)
Writing library                          : x264 core 161 r3018 db0d417
Encoding settings                        : cabac=1 / ref=9 / deblock=1:-3:-3 / analyse=0x3:0x133 / me=umh / subme=10 / psy=1 / psy_rd=1.00:0.15 / mixed_ref=1 / me_range=24 / chroma_me=1 / trellis=2 / 8x8dct=1 / cqm=0 / deadzone=21,11 / fast_pskip=1 / chroma_qp_offset=-3 / threads=18 / lookahead_threads=3 / sliced_threads=0 / nr=0 / decimate=1 / interlaced=0 / bluray_compat=0 / constrained_intra=0 / bframes=8 / b_pyramid=2 / b_adapt=2 / b_bias=0 / direct=3 / weightb=1 / open_gop=0 / weightp=2 / keyint=250 / keyint_min=25 / scenecut=40 / intra_refresh=0 / rc_lookahead=60 / rc=crf / mbtree=1 / crf=14.0 / qcomp=0.60 / qpmin=0 / qpmax=69 / qpstep=4 / ip_ratio=1.40 / aq=3:0.60
Language                                 : English
Default                                  : Yes
Forced                                   : No

Audio
ID                                       : 2
Format                                   : AC-3
Format/Info                              : Audio Coding 3
Commercial name                          : Dolby Digital
Codec ID                                 : A_AC3
Duration                                 : 1 h 14 min
Bit rate mode                            : Constant
Bit rate                                 : 384 kb/s
Channel(s)                               : 2 channels
Channel layout                           : L R
Sampling rate                            : 48.0 kHz
Frame rate                               : 31.250 FPS (1536 SPF)
Compression mode                         : Lossy
Stream size                              : 206 MiB (5%)
Language                                 : Polish
Service kind                             : Complete Main
Default                                  : Yes
Forced                                   : No

Text #1
ID                                       : 3
Format                                   : UTF-8
Codec ID                                 : S_TEXT/UTF8
Codec ID/Info                            : UTF-8 Plain Text
Duration                                 : 1 h 11 min
Bit rate                                 : 42 b/s
Count of elements                        : 591
Stream size                              : 22.4 KiB (0%)
Title                                    : English
Language                                 : English
Default                                  : Yes
Forced                                   : Yes

Text #2
ID                                       : 4
Format                                   : PGS
Muxing mode                              : zlib
Codec ID                                 : S_HDMV/PGS
Codec ID/Info                            : Picture based subtitle format used on BDs/HD-DVDs
Duration                                 : 1 h 11 min
Bit rate                                 : 9 791 b/s
Count of elements                        : 880
Stream size                              : 4.99 MiB (0%)
Title                                    : English
Language                                 : English
Default                                  : No
Forced                                   : No

Menu
00:00:00.000                             : en:00:00:00.000
00:07:03.080                             : en:00:07:03.080
00:20:02.760                             : en:00:20:02.760
00:29:32.640                             : en:00:29:32.640
00:36:25.720                             : en:00:36:25.720
00:44:03.480                             : en:00:44:03.480
00:52:30.720                             : en:00:52:30.720
00:56:57.560                             : en:00:56:57.560
01:05:11.720                             : en:01:05:11.720




                                                                                                                                                                                                        


09563ea154d6bf960c6f41c142f30b47.zip (39.01 KB)

回复

使用道具 举报

小黑屋|西西电影论坛 ( 闽ICP备160050789号-1 )

所有资源来自网络采集,如果侵犯了您的权益,请发邮件至 [email protected],立即清除相关链接

GMT+8, 2020-10-30 00:30 , Processed in 0.146050 second(s), 27 queries .

Powered by Discuz! X3.2

© 2001-2013 Comsenz Inc.

快速回复 返回顶部 返回列表