西西电影论坛

 找回密码
 立即注册

黃飛鴻'92之龍行天下 The.Master.1992.REMASTERED.720p.BluRay.x264-BiPOL...

[复制链接]

电影下载 发表于 2020-10-12 13:07:13 | 显示全部楼层 |阅读模式
帖子完整标题:黃飛鴻'92之龍行天下 The.Master.1992.REMASTERED.720p.BluRay.x264-BiPOLAR 7.75GB




◎译  名 黄飞鸿'92之龙行天下/The Master/龙行天下
◎片  名 黃飛鴻'92之龍行天下
◎年  代 1992
◎产  地 中国香港
◎类  别 动作
◎语  言 粤语
◎上映日期 1992-05-28
◎IMDb评分  5.8/10 from 2474 users
◎片  长 92分钟
◎导  演 徐克 Hark Tsui
◎编  剧 林纪陶 Jason Lam / 刘大木 Tai-Mok Lau / 徐克 Hark Tsui
◎主  演 李连杰 Jet Li
       元华 Wah Yuen
       郭锦恩 Crystal Kwok
       杰瑞·特林伯 Jerry Trimble
       David Wald
       克里斯·卡内尔 Chris Carnel
       元奎 Corey Yuen

◎标  签 李连杰 | 动作 | 徐克 | 香港 | 香港电影 | 元华 | 1989 | 电影

◎简  介

  武师陈厚德(元华 饰)远赴美国开设宝芝林,时常召唤国内的徒弟阿杰(李连杰 饰)来美国帮衬,但阿杰担忧在美的居留问题,迟迟未到。陈厚德曾经收下一名美国弟子尊尼(杰瑞?特林伯 饰),尊尼学成后却挑战师傅,意欲扬名立万扩张自己的武馆,陈厚德被尊尼打成重伤,宝芝林也被砸烂,幸好有少女安娜路过,将陈厚德救走。几乎同时,阿杰终于来美探望师傅,岂料一出机场便遭遇各种麻烦,先是莫名其妙收下三名落魄墨西哥少年为弟子,又与查封宝芝林的银行地产部经理阿美(郭锦恩 饰)不吵不相识。阿杰因语言不通,守候宝芝林寻找师傅下落,而尊尼也在四处打探陈厚德的去向,一中一外两名弟子,将为义与利的不同追求狭路相逢……
Video
ID                                       : 1
Format                                   : AVC
Format/Info                              : Advanced Video Codec
Format settings                          : CABAC / 9 Ref Frames
Format settings, CABAC                   : Yes
Format settings, Reference frames        : 9 frames
Codec ID                                 : V_MPEG4/ISO/AVC
Duration                                 : 1 h 32 min
Bit rate                                 : 8 718 kb/s
Width                                    : 1 280 pixels
Height                                   : 692 pixels
Display aspect ratio                     : 1.85:1
Frame rate mode                          : Constant
Frame rate                               : 23.976 (24000/1001/189150) FPS
Color space                              : YUV
Chroma subsampling                       : 4:2:0
Bit depth                                : 8 bits
Scan type                                : Progressive
Bits/(Pixel*Frame)                       : 0.410
Stream size                              : 5.66 GiB (73%)
Writing library                          : x264 core 161 r3018 db0d417
Encoding settings                        : cabac=1 / ref=9 / deblock=1:-3:-3 / analyse=0x3:0x133 / me=umh / subme=10 / psy=1 / psy_rd=1.00:0.15 / mixed_ref=1 / me_range=24 / chroma_me=1 / trellis=2 / 8x8dct=1 / cqm=0 / deadzone=21,11 / fast_pskip=1 / chroma_qp_offset=-3 / threads=18 / lookahead_threads=3 / sliced_threads=0 / nr=0 / decimate=1 / interlaced=0 / bluray_compat=0 / constrained_intra=0 / bframes=8 / b_pyramid=2 / b_adapt=2 / b_bias=0 / direct=3 / weightb=1 / open_gop=0 / weightp=2 / keyint=250 / keyint_min=23 / scenecut=40 / intra_refresh=0 / rc_lookahead=60 / rc=crf / mbtree=1 / crf=18.0 / qcomp=0.60 / qpmin=0 / qpmax=69 / qpstep=4 / ip_ratio=1.40 / aq=3:0.50
Language                                 : English
Default                                  : Yes
Forced                                   : No
Color range                              : Limited
Matrix coefficients                      : BT.709

Audio #1
ID                                       : 2
Format                                   : FLAC
Format/Info                              : Free Lossless Audio Codec
Codec ID                                 : A_FLAC
Duration                                 : 1 h 32 min
Bit rate mode                            : Variable
Bit rate                                 : 504 kb/s
Channel(s)                               : 2 channels
Channel layout                           : L R
Sampling rate                            : 48.0 kHz
Frame rate                               : 11.719 FPS (4096 SPF)
Bit depth                                : 16 bits
Compression mode                         : Lossless
Stream size                              : 335 MiB (4%)
Title                                    : Cantonese (Original Theatrical Mix)
Writing library                          : libFLAC 1.2.1 (UTC 2007-09-17)
Language                                 : Chinese
Default                                  : Yes
Forced                                   : No

Audio #2
ID                                       : 3
Format                                   : FLAC
Format/Info                              : Free Lossless Audio Codec
Codec ID                                 : A_FLAC
Duration                                 : 1 h 32 min
Bit rate mode                            : Variable
Bit rate                                 : 708 kb/s
Channel(s)                               : 2 channels
Channel layout                           : L R
Sampling rate                            : 48.0 kHz
Frame rate                               : 11.719 FPS (4096 SPF)
Bit depth                                : 24 bits
Compression mode                         : Lossless
Stream size                              : 471 MiB (6%)
Title                                    : Cantonese (Alternate 2020 Remastered Mix)
Writing library                          : libFLAC 1.2.1 (UTC 2007-09-17)
Language                                 : Chinese
Default                                  : No
Forced                                   : No

Audio #3
ID                                       : 4
Format                                   : AC-3
Format/Info                              : Audio Coding 3
Commercial name                          : Dolby Digital
Codec ID                                 : A_AC3
Duration                                 : 1 h 32 min
Bit rate mode                            : Constant
Bit rate                                 : 640 kb/s
Channel(s)                               : 6 channels
Channel layout                           : L R C LFE Ls Rs
Sampling rate                            : 48.0 kHz
Frame rate                               : 31.250 FPS (1536 SPF)
Compression mode                         : Lossy
Stream size                              : 425 MiB (5%)
Title                                    : Cantonese (New 5.1 Mix)
Language                                 : Chinese
Service kind                             : Complete Main
Default                                  : No
Forced                                   : No

Audio #4
ID                                       : 5
Format                                   : FLAC
Format/Info                              : Free Lossless Audio Codec
Codec ID                                 : A_FLAC
Duration                                 : 1 h 32 min
Bit rate mode                            : Variable
Bit rate                                 : 493 kb/s
Channel(s)                               : 2 channels
Channel layout                           : L R
Sampling rate                            : 48.0 kHz
Frame rate                               : 11.719 FPS (4096 SPF)
Bit depth                                : 16 bits
Compression mode                         : Lossless
Stream size                              : 327 MiB (4%)
Title                                    : English (Export Version)
Writing library                          : libFLAC 1.2.1 (UTC 2007-09-17)
Language                                 : English
Default                                  : No
Forced                                   : No

Audio #5
ID                                       : 6
Format                                   : AC-3
Format/Info                              : Audio Coding 3
Commercial name                          : Dolby Digital
Codec ID                                 : A_AC3
Duration                                 : 1 h 32 min
Bit rate mode                            : Constant
Bit rate                                 : 640 kb/s
Channel(s)                               : 6 channels
Channel layout                           : L R C LFE Ls Rs
Sampling rate                            : 48.0 kHz
Frame rate                               : 31.250 FPS (1536 SPF)
Compression mode                         : Lossy
Stream size                              : 425 MiB (5%)
Title                                    : English (5.1 Mix)
Language                                 : English
Service kind                             : Complete Main
Default                                  : No
Forced                                   : No

Audio #6
ID                                       : 7
Format                                   : AAC LC
Format/Info                              : Advanced Audio Codec Low Complexity
Codec ID                                 : A_AAC-2
Duration                                 : 1 h 32 min
Bit rate                                 : 91.1 kb/s
Channel(s)                               : 2 channels
Channel layout                           : L R
Sampling rate                            : 48.0 kHz
Frame rate                               : 46.875 FPS (1024 SPF)
Compression mode                         : Lossy
Delay relative to video                  : 9 ms
Stream size                              : 60.6 MiB (1%)
Title                                    : English Commentary by Mike Leeder and Arne Venema
Language                                 : English
Default                                  : No
Forced                                   : No

Audio #7
ID                                       : 8
Format                                   : AAC LC
Format/Info                              : Advanced Audio Codec Low Complexity
Codec ID                                 : A_AAC-2
Duration                                 : 1 h 32 min
Bit rate                                 : 91.3 kb/s
Channel(s)                               : 2 channels
Channel layout                           : L R
Sampling rate                            : 48.0 kHz
Frame rate                               : 46.875 FPS (1024 SPF)
Compression mode                         : Lossy
Delay relative to video                  : 9 ms
Stream size                              : 60.7 MiB (1%)
Title                                    : English Commentary by R.P \"Kung Fu Bob\" O\'Brien
Language                                 : English
Default                                  : No
Forced                                   : No

Text #1
ID                                       : 9
Format                                   : UTF-8
Codec ID                                 : S_TEXT/UTF8
Codec ID/Info                            : UTF-8 Plain Text
Duration                                 : 1 h 30 min
Bit rate                                 : 41 b/s
Count of elements                        : 741
Stream size                              : 27.3 KiB (0%)
Title                                    : English forced
Language                                 : English
Default                                  : Yes
Forced                                   : Yes

Text #2
ID                                       : 10
Format                                   : PGS
Muxing mode                              : zlib
Codec ID                                 : S_HDMV/PGS
Codec ID/Info                            : Picture based subtitle format used on BDs/HD-DVDs
Duration                                 : 1 h 30 min
Bit rate                                 : 21.0 kb/s
Count of elements                        : 1482
Stream size                              : 13.5 MiB (0%)
Title                                    : English forced
Language                                 : English
Default                                  : No
Forced                                   : No

Text #3
ID                                       : 11
Format                                   : UTF-8
Codec ID                                 : S_TEXT/UTF8
Codec ID/Info                            : UTF-8 Plain Text
Duration                                 : 1 h 31 min
Bit rate                                 : 59 b/s
Count of elements                        : 1127
Stream size                              : 39.5 KiB (0%)
Title                                    : English
Language                                 : English
Default                                  : No
Forced                                   : No

Text #4
ID                                       : 12
Format                                   : UTF-8
Codec ID                                 : S_TEXT/UTF8
Codec ID/Info                            : UTF-8 Plain Text
Duration                                 : 1 h 31 min
Bit rate                                 : 63 b/s
Count of elements                        : 1193
Stream size                              : 42.5 KiB (0%)
Title                                    : English SDH
Language                                 : English
Default                                  : No
Forced                                   : No

Text #5
ID                                       : 13
Format                                   : PGS
Muxing mode                              : zlib
Codec ID                                 : S_HDMV/PGS
Codec ID/Info                            : Picture based subtitle format used on BDs/HD-DVDs
Duration                                 : 1 h 31 min
Bit rate                                 : 31.8 kb/s
Count of elements                        : 2386
Stream size                              : 20.7 MiB (0%)
Title                                    : English SDH
Language                                 : English
Default                                  : No
Forced                                   : No

Menu
00:00:00.000                             : en:00:00:00.000
00:09:28.693                             : en:00:09:28.693
00:15:47.697                             : en:00:15:47.697
00:23:53.515                             : en:00:23:53.515
00:34:15.303                             : en:00:34:15.303
00:44:07.603                             : en:00:44:07.603
00:52:09.293                             : en:00:52:09.293
00:56:53.160                             : en:00:56:53.160
01:03:42.527                             : en:01:03:42.527
01:11:56.437                             : en:01:11:56.437
01:19:30.432                             : en:01:19:30.432
01:26:52.749                             : en:01:26:52.749




                                                                                                                                                                                                        


b31dac39240153cd2bd7f413b3724374.zip (40.25 KB)

回复

使用道具 举报

小黑屋|西西电影论坛 ( 闽ICP备160050789号-1 )

所有资源来自网络采集,如果侵犯了您的权益,请发邮件至 [email protected],立即清除相关链接

GMT+8, 2020-10-30 01:24 , Processed in 0.114262 second(s), 27 queries .

Powered by Discuz! X3.2

© 2001-2013 Comsenz Inc.

快速回复 返回顶部 返回列表