西西电影论坛

 找回密码
 立即注册

最熟悉的陌生人 The.Distances.2018.720p.BluRay.x264-BiPOLAR 3.91GB

[复制链接]

电影下载 发表于 2020-10-12 13:07:13 | 显示全部楼层 |阅读模式
帖子完整标题:最熟悉的陌生人 The.Distances.2018.720p.BluRay.x264-BiPOLAR 3.91GB




◎译  名 最熟悉的陌生人/Distances/异乡真心话(台)
◎片  名 Les Distàncies
◎年  代 2018
◎产  地 西班牙
◎类  别 剧情
◎语  言 西班牙语
◎上映日期 2018-04-17(马拉加电影节) / 2018-09-07(西班牙)
◎IMDb评分  6.3/10 from 824 users
◎片  长 99分钟
◎导  演 埃琳娜·特拉普 Elena Trapé
◎编  剧 Miguel Iba?ez Monroy / 埃琳娜·特拉普 Elena Trapé
◎主  演 亚历山德拉·希门内斯 Alexandra Jiménez
       米奇·艾斯巴尔贝 Miki Esparbé
       伊萨克·费里 Isak Férriz
       布鲁诺·塞维利亚 Bruno Sevilla

◎标  签 西班牙 | 2018 | 友情 | 西班牙电影 | 剧情 | 爱情 | 埃琳娜·特拉普 | 欧洲电影

◎简  介

  奥利维亚,埃洛伊,吉尔和安娜决定周末一起前往柏林,准备给他们共同的朋友Comas一个惊喜,为他庆祝35岁生日。然而,Comas没有像预期的那样欢迎他们的到来。就在这个短短的周末,他们之间深藏的矛盾逐渐浮出水面,多年的友谊也受到了考验。他们慢慢发现时间和距离真的可以改变一切……

◎获奖情况

  第23届釜山国际电影节 ?(2018)
  未来景象奖(提名) 埃琳娜·特拉普
Video
ID                                       : 1
Format                                   : AVC
Format/Info                              : Advanced Video Codec
Format settings                          : CABAC / 9 Ref Frames
Format settings, CABAC                   : Yes
Format settings, Reference frames        : 9 frames
Codec ID                                 : V_MPEG4/ISO/AVC
Duration                                 : 1 h 40 min
Bit rate                                 : 4 893 kb/s
Width                                    : 1 280 pixels
Height                                   : 692 pixels
Display aspect ratio                     : 1.85:1
Frame rate mode                          : Constant
Frame rate                               : 24.000 FPS
Color space                              : YUV
Chroma subsampling                       : 4:2:0
Bit depth                                : 8 bits
Scan type                                : Progressive
Bits/(Pixel*Frame)                       : 0.230
Stream size                              : 3.44 GiB (88%)
Writing library                          : x264 core 161 r3018 db0d417
Encoding settings                        : cabac=1 / ref=9 / deblock=1:-3:-3 / analyse=0x3:0x133 / me=umh / subme=10 / psy=1 / psy_rd=1.00:0.15 / mixed_ref=1 / me_range=24 / chroma_me=1 / trellis=2 / 8x8dct=1 / cqm=0 / deadzone=21,11 / fast_pskip=1 / chroma_qp_offset=-3 / threads=18 / lookahead_threads=3 / sliced_threads=0 / nr=0 / decimate=1 / interlaced=0 / bluray_compat=0 / constrained_intra=0 / bframes=8 / b_pyramid=2 / b_adapt=2 / b_bias=0 / direct=3 / weightb=1 / open_gop=0 / weightp=2 / keyint=250 / keyint_min=24 / scenecut=40 / intra_refresh=0 / rc_lookahead=60 / rc=crf / mbtree=1 / crf=15.0 / qcomp=0.60 / qpmin=0 / qpmax=69 / qpstep=4 / ip_ratio=1.40 / aq=3:0.80
Language                                 : English
Default                                  : Yes
Forced                                   : No
Color range                              : Limited
Matrix coefficients                      : BT.709

Audio
ID                                       : 2
Format                                   : AC-3
Format/Info                              : Audio Coding 3
Commercial name                          : Dolby Digital
Codec ID                                 : A_AC3
Duration                                 : 1 h 40 min
Bit rate mode                            : Constant
Bit rate                                 : 640 kb/s
Channel(s)                               : 6 channels
Channel layout                           : L R C LFE Ls Rs
Sampling rate                            : 48.0 kHz
Frame rate                               : 31.250 FPS (1536 SPF)
Compression mode                         : Lossy
Stream size                              : 461 MiB (11%)
Language                                 : Catalan
Service kind                             : Complete Main
Default                                  : Yes
Forced                                   : No

Text #1
ID                                       : 3
Format                                   : UTF-8
Codec ID                                 : S_TEXT/UTF8
Codec ID/Info                            : UTF-8 Plain Text
Duration                                 : 1 h 36 min
Bit rate                                 : 30 b/s
Count of elements                        : 640
Stream size                              : 21.8 KiB (0%)
Title                                    : English forced
Language                                 : English
Default                                  : Yes
Forced                                   : Yes

Text #2
ID                                       : 4
Format                                   : PGS
Muxing mode                              : zlib
Codec ID                                 : S_HDMV/PGS
Codec ID/Info                            : Picture based subtitle format used on BDs/HD-DVDs
Duration                                 : 1 h 36 min
Bit rate                                 : 11.2 kb/s
Count of elements                        : 1280
Stream size                              : 7.79 MiB (0%)
Title                                    : English forced
Language                                 : English
Default                                  : No
Forced                                   : No

Text #3
ID                                       : 5
Format                                   : PGS
Muxing mode                              : zlib
Codec ID                                 : S_HDMV/PGS
Codec ID/Info                            : Picture based subtitle format used on BDs/HD-DVDs
Duration                                 : 1 h 36 min
Bit rate                                 : 2 056 b/s
Count of elements                        : 310
Stream size                              : 1.41 MiB (0%)
Title                                    : Catalan forced
Language                                 : Catalan
Default                                  : No
Forced                                   : No

Text #4
ID                                       : 6
Format                                   : PGS
Muxing mode                              : zlib
Codec ID                                 : S_HDMV/PGS
Codec ID/Info                            : Picture based subtitle format used on BDs/HD-DVDs
Duration                                 : 1 h 36 min
Bit rate                                 : 2 330 b/s
Count of elements                        : 326
Stream size                              : 1.60 MiB (0%)
Title                                    : Spanish forced
Language                                 : Spanish
Default                                  : No
Forced                                   : No

Text #5
ID                                       : 7
Format                                   : PGS
Muxing mode                              : zlib
Codec ID                                 : S_HDMV/PGS
Codec ID/Info                            : Picture based subtitle format used on BDs/HD-DVDs
Duration                                 : 1 h 36 min
Bit rate                                 : 8 293 b/s
Count of elements                        : 988
Stream size                              : 5.75 MiB (0%)
Title                                    : Spanish
Language                                 : Spanish
Default                                  : No
Forced                                   : No

Text #6
ID                                       : 8
Format                                   : PGS
Muxing mode                              : zlib
Codec ID                                 : S_HDMV/PGS
Codec ID/Info                            : Picture based subtitle format used on BDs/HD-DVDs
Duration                                 : 1 h 37 min
Bit rate                                 : 8 315 b/s
Count of elements                        : 2090
Stream size                              : 5.80 MiB (0%)
Title                                    : Spanish SDH
Language                                 : Spanish
Default                                  : No
Forced                                   : No

Menu
00:00:00.000                             : en:00:00:00.000
00:09:14.917                             : en:00:09:14.917
00:18:35.458                             : en:00:18:35.458
00:26:25.083                             : en:00:26:25.083
00:34:51.042                             : en:00:34:51.042
00:44:24.708                             : en:00:44:24.708
00:52:30.958                             : en:00:52:30.958
01:00:52.375                             : en:01:00:52.375
01:08:56.042                             : en:01:08:56.042
01:17:59.792                             : en:01:17:59.792
01:25:07.417                             : en:01:25:07.417
01:32:41.917                             : en:01:32:41.917




                                                                                                                                                                                                        


712ca9b6b5820d7d23aa8d48bb8cf250.zip (40.61 KB)

回复

使用道具 举报

小黑屋|西西电影论坛 ( 闽ICP备160050789号-1 )

所有资源来自网络采集,如果侵犯了您的权益,请发邮件至 [email protected],立即清除相关链接

GMT+8, 2020-10-21 02:00 , Processed in 0.104357 second(s), 27 queries .

Powered by Discuz! X3.2

© 2001-2013 Comsenz Inc.

快速回复 返回顶部 返回列表