西西电影论坛

 找回密码
 立即注册

一无所有 Little.Nothings.1992.720p.BluRay.x264-BiPOLAR 7.17GB

[复制链接]

电影下载 发表于 2020-10-12 13:07:13 | 显示全部楼层 |阅读模式
帖子完整标题:一无所有 Little.Nothings.1992.720p.BluRay.x264-BiPOLAR 7.17GB




◎译  名 一无所有/Little Nothings
◎片  名 Riens du tout
◎年  代 1992
◎产  地 法国
◎类  别 喜剧
◎语  言 法语
◎上映日期 1992-11-11
◎IMDb评分  6.4/10 from 668 users
◎片  长 95分钟
◎导  演 塞德里克·克拉皮斯 Cédric Klapisch
◎编  剧 杰基·贝约尔 Jackie Berroyer
◎主  演 法布莱斯·鲁奇尼 Fabrice Luchini
       皮埃尔-奥利维耶·莫尔纳 Pierre-Olivier Mornas
       劳伦斯·弗瑞拉·巴博萨 Laurence Ferreira Barbosa
       Jo?l Brisse
       娜塔莉·理查德 Nathalie Richard

◎标  签 法国电影 | 法国 | 职场 | 百货 | ??FabriceLuchini(1951) | 现代 | 法語電影 | 歐洲電影

◎简  介

  暂无相关剧情介绍
Video
ID                                       : 1
Format                                   : AVC
Format/Info                              : Advanced Video Codec
Format settings                          : CABAC / 9 Ref Frames
Format settings, CABAC                   : Yes
Format settings, Reference frames        : 9 frames
Codec ID                                 : V_MPEG4/ISO/AVC
Duration                                 : 1 h 37 min
Bit rate                                 : 9 213 kb/s
Width                                    : 1 280 pixels
Height                                   : 692 pixels
Display aspect ratio                     : 1.85:1
Frame rate mode                          : Constant
Frame rate                               : 23.976 (24000/1001/189150) FPS
Color space                              : YUV
Chroma subsampling                       : 4:2:0
Bit depth                                : 8 bits
Scan type                                : Progressive
Bits/(Pixel*Frame)                       : 0.434
Stream size                              : 6.24 GiB (87%)
Writing library                          : x264 core 161 r3018 db0d417
Encoding settings                        : cabac=1 / ref=9 / deblock=1:-3:-3 / analyse=0x3:0x133 / me=umh / subme=10 / psy=1 / psy_rd=1.00:0.15 / mixed_ref=1 / me_range=24 / chroma_me=1 / trellis=2 / 8x8dct=1 / cqm=0 / deadzone=21,11 / fast_pskip=1 / chroma_qp_offset=-3 / threads=18 / lookahead_threads=3 / sliced_threads=0 / nr=0 / decimate=1 / interlaced=0 / bluray_compat=0 / constrained_intra=0 / bframes=8 / b_pyramid=2 / b_adapt=2 / b_bias=0 / direct=3 / weightb=1 / open_gop=0 / weightp=2 / keyint=250 / keyint_min=23 / scenecut=40 / intra_refresh=0 / rc_lookahead=60 / rc=crf / mbtree=1 / crf=19.0 / qcomp=0.60 / qpmin=0 / qpmax=69 / qpstep=4 / ip_ratio=1.40 / aq=3:0.50
Language                                 : English
Default                                  : Yes
Forced                                   : No
Color range                              : Limited
Matrix coefficients                      : BT.709

Audio
ID                                       : 2
Format                                   : FLAC
Format/Info                              : Free Lossless Audio Codec
Codec ID                                 : A_FLAC
Duration                                 : 1 h 37 min
Bit rate mode                            : Variable
Bit rate                                 : 1 353 kb/s
Channel(s)                               : 2 channels
Channel layout                           : L R
Sampling rate                            : 48.0 kHz
Frame rate                               : 11.719 FPS (4096 SPF)
Bit depth                                : 24 bits
Compression mode                         : Lossless
Stream size                              : 939 MiB (13%)
Writing library                          : libFLAC 1.2.1 (UTC 2007-09-17)
Language                                 : French
Default                                  : Yes
Forced                                   : No

Text #1
ID                                       : 3
Format                                   : UTF-8
Codec ID                                 : S_TEXT/UTF8
Codec ID/Info                            : UTF-8 Plain Text
Duration                                 : 1 h 33 min
Bit rate                                 : 63 b/s
Count of elements                        : 1324
Stream size                              : 43.3 KiB (0%)
Title                                    : English
Language                                 : English
Default                                  : Yes
Forced                                   : Yes

Text #2
ID                                       : 4
Format                                   : PGS
Muxing mode                              : zlib
Codec ID                                 : S_HDMV/PGS
Codec ID/Info                            : Picture based subtitle format used on BDs/HD-DVDs
Duration                                 : 1 h 33 min
Bit rate                                 : 10.5 kb/s
Count of elements                        : 2648
Stream size                              : 7.02 MiB (0%)
Title                                    : English
Language                                 : English
Default                                  : No
Forced                                   : No

Menu
00:00:00.000                             : en:00:00:00.000
00:09:00.290                             : en:00:09:00.290
00:16:57.475                             : en:00:16:57.475
00:23:40.711                             : en:00:23:40.711
00:31:32.349                             : en:00:31:32.349
00:40:35.850                             : en:00:40:35.850
00:47:58.459                             : en:00:47:58.459
00:56:36.310                             : en:00:56:36.310
01:04:43.046                             : en:01:04:43.046
01:13:03.170                             : en:01:13:03.170
01:21:15.496                             : en:01:21:15.496
01:30:20.498                             : en:01:30:20.498




                                                                                                                                                                                                        


be62544f648d0d705a5a77306947b8ba.zip (36.55 KB)

回复

使用道具 举报

小黑屋|西西电影论坛 ( 闽ICP备160050789号-1 )

所有资源来自网络采集,如果侵犯了您的权益,请发邮件至 [email protected],立即清除相关链接

GMT+8, 2020-10-30 00:02 , Processed in 0.105776 second(s), 27 queries .

Powered by Discuz! X3.2

© 2001-2013 Comsenz Inc.

快速回复 返回顶部 返回列表