西西电影论坛

 找回密码
 立即注册

[BD-4K] 第九区/D-9异形禁区 District.9.2009.2160p.BluRay.x264.8bit.SDR.DTS-HD.M...

[复制链接]

电影下载 发表于 2020-10-13 10:35:18 | 显示全部楼层 |阅读模式
帖子完整标题:第九区/D-9异形禁区 District.9.2009.2160p.BluRay.x264.8bit.SDR.DTS-HD.MA.TrueHD.7.1.Atmos-SWTYBLZ 47.27GB




◎译  名 第九区/D-9异形禁区(港)/第9区/第九禁区(台)
◎片  名 District 9
◎年  代 2009
◎产  地 美国,新西兰,加拿大,南非
◎类  别 剧情 / 动作 / 科幻 / 惊悚
◎语  言 英语,尼扬贾语,南非荷兰语,祖鲁语,科萨语,塞索托语
◎上映日期 2009-08-14(美国) / 2009-11-27(中国大陆)
◎IMDb评分  7.9/10 from 632075 users
◎片  长 112分钟
◎导  演 尼尔·布洛姆坎普 Neill Blomkamp
◎编  剧 尼尔·布洛姆坎普 Neill Blomkamp / 特丽·塔歇尔 Terri Tatchell
◎主  演 沙尔托·科普雷 Sharlto Copley
       詹森·库伯 Jason Cope
       娜塔莉·博尔特 Nathalie Boltt
       茜尔雯·斯特赖克 Sylvaine Strike
       约翰·萨莫尔 John Sumner
       威廉·艾伦·扬 William Allen Young
       尼克·布雷克 Nick Blake
       杰德·布罗菲 Jed Brophy
       路易斯·米纳尔 Louis Minnaar
       瓦妮莎·海伍德 Vanessa Haywood
       玛丽安·胡曼 Marian Hooman
       维多利奥·莱奥纳迪 Vittorio Leonardi
       曼德拉·加杜卡 Mandla Gaduka
       约翰·范·肖尔 Johan van Schoor
       斯特拉·斯廷坎普 Stella Steenkamp
       戴维·詹姆斯 David James
       肯尼思·恩科西 Kenneth Nkosi
       蒂姆·戈登 Tim Gordon
       莫尔内·埃拉斯姆斯 Morne Erasmus
       尤金·孔巴尼瓦 Eugene Khumbanyiwa
       赫棱基维·马德拉拉 Hlengiwe Madlala
       西雅邦加·拉德贝 Siyabonga Radebe
       梅尔特·西贝尔哈亨 Melt Sieberhagen
       安德勒·奥登达尔 Andre Odendaal
       尼克·伯莱尼 Nick Boraine
       罗伯特·霍布斯 Robert Hobbs
       Barry Strydom
       Mzwandile Nqoba
       西莫·莫加瓦扎 Simo Mogwaza
       伊丽莎白玛坎达维 Elizabeth Mkandawie
       格雷格·梅尔维尔-史密斯 Greg Melvill-Smith
       Morena Busa Sesatsa
       Themba Nkosi
       大卫·杜卡斯 David Dukas

◎标  签 科幻 | 人性 | 美国 | 第九区 | 种族 | 讽刺 | 反思 | 2009

◎简  介

  1990年,一艘巨大的飞船出现在地球上空,人们惶恐不安,却又分外好奇。经过一段时间紧张的等待,外星飞船始终没有动静。人类终于小心翼翼靠近它,强行走进舱内,结果发现了不计其数的外星人。他们形容丑陋,宛如虾子,而且健康状况极差,虚弱无力。原来这是一群来自外星的难民,他们最终被地球人接纳,并隔离在南非约翰内斯堡的一片区域内生活,此地名为“第九区”。经过长达20年的繁衍,外星难民的数量扩张至180万之多,且和周边人类的矛盾冲突不断,越来越多的人类呼吁将“大虾”赶出地球。
  
  MNU(列国同盟组织)经过磋商,决定将外星难民迁移到更为偏远的区域。MNU外星事务部门的特工威库斯(Sharlto Copley 饰)专门负责搬迁工作。威库斯在动员过程中傲慢随意,与当地居民冲突频频。最终,他为自己的行为付出代价,外星人的神秘流体将其感染,威库斯慢慢变成了外星人的模样……

◎获奖情况

  第82届奥斯卡金像奖 ?(2010)
  最佳影片(提名) 卡罗琳·康宁安?/?彼得·杰克逊
  最佳改编剧本(提名) 尼尔·布洛姆坎普?/?特丽·塔歇尔
  最佳剪辑(提名) 祖利安·格克
  最佳视觉效果(提名) 丹·考夫曼?/?彼得·迈泽尔斯?/?罗伯特·哈布罗斯?/?马特·艾特肯
  
  第67届金球奖 ?(2010)
  电影类最佳编剧(提名) 尼尔·布洛姆坎普?/?特丽·塔歇尔
  
  第19届MTV电影奖 ?(2010)
  MTV电影奖最佳惊恐戏表演(提名) 沙尔托·科普雷
  
  第22届芝加哥影评人协会奖 ?(2009)
  最具潜力演员(提名) 沙尔托·科普雷
  最具潜力导演 尼尔·布洛姆坎普
  
  第43届堪萨斯影评人协会奖 ?(2010)
  最佳科幻/恐怖片
  
  第9届凤凰城影评人协会奖 ?(2009)
  最佳新人导演 尼尔·布洛姆坎普
  
  第12届美国青少年选择奖 ?(2010)
  最佳科幻电影(提名)
  最佳科幻电影男演员(提名) 沙尔托·科普雷
Video
ID                                       : 1
Format                                   : AVC
Format/Info                              : Advanced Video Codec
Format settings                          : CABAC / 5 Ref Frames
Format settings, CABAC                   : Yes
Format settings, Reference frames        : 5 frames
Codec ID                                 : V_MPEG4/ISO/AVC
Duration                                 : 1 h 52 min
Bit rate                                 : 51.2 Mb/s
Width                                    : 3 840 pixels
Height                                   : 2 076 pixels
Display aspect ratio                     : 1.85:1
Frame rate mode                          : Constant
Frame rate                               : 23.976 (24000/1001/189150) FPS
Color space                              : YUV
Chroma subsampling                       : 4:2:0
Bit depth                                : 8 bits
Scan type                                : Progressive
Bits/(Pixel*Frame)                       : 0.268
Stream size                              : 40.1 GiB (85%)
Title                                    : District.9.2009.2160p.BluRay.x264.8bit.SDR.DTS-HD.MA.TrueHD.7.1.Atmos-SWTYBLZ
Writing library                          : x264 core 157 r2935 545de2f
Encoding settings                        : cabac=1 / ref=5 / deblock=1:-1:-1 / analyse=0x3:0x113 / me=umh / subme=10 / psy=1 / psy_rd=1.00:0.15 / mixed_ref=1 / me_range=48 / chroma_me=1 / trellis=2 / 8x8dct=1 / cqm=0 / deadzone=21,11 / fast_pskip=1 / chroma_qp_offset=-3 / threads=48 / lookahead_threads=4 / sliced_threads=0 / nr=0 / decimate=0 / interlaced=0 / bluray_compat=0 / constrained_intra=0 / bframes=3 / b_pyramid=2 / b_adapt=2 / b_bias=0 / direct=3 / weightb=1 / open_gop=0 / weightp=2 / keyint=250 / keyint_min=23 / scenecut=40 / intra_refresh=0 / rc_lookahead=50 / rc=crf / mbtree=1 / crf=18.0 / qcomp=0.60 / qpmin=0 / qpmax=69 / qpstep=4 / ip_ratio=1.40 / aq=1:1.00
Default                                  : Yes
Forced                                   : No

Audio #1
ID                                       : 2
ID in the original source medium         : 4352 (0x1100)
Format                                   : MLP FBA 16-ch
Format/Info                              : Meridian Lossless Packing FBA with 16-channel presentation
Commercial name                          : Dolby TrueHD with Dolby Atmos
Codec ID                                 : A_TRUEHD
Duration                                 : 1 h 52 min
Bit rate mode                            : Variable
Bit rate                                 : 3 442 kb/s
Maximum bit rate                         : 5 568 kb/s
Channel(s)                               : 8 channels
Channel layout                           : L R C LFE Ls Rs Lb Rb
Sampling rate                            : 48.0 kHz
Frame rate                               : 1 200.000 FPS (40 SPF)
Compression mode                         : Lossless
Stream size                              : 2.70 GiB (6%)
Title                                    : District.9.2009.2160p.BluRay.x264.8bit.SDR.DTS-HD.MA.TrueHD.7.1.Atmos-SWTYBLZ
Language                                 : English
Default                                  : Yes
Forced                                   : No
Original source medium                   : Blu-ray
Number of dynamic objects                : 11
Bed channel count                        : 1 channel
Bed channel configuration                : LFE


Text #31
ID                                       : 35
ID in the original source medium         : 4797 (0x12BD)
Format                                   : PGS
Muxing mode                              : zlib
Codec ID                                 : S_HDMV/PGS
Codec ID/Info                            : Picture based subtitle format used on BDs/HD-DVDs
Duration                                 : 1 h 51 min
Bit rate                                 : 35.1 kb/s
Count of elements                        : 2954
Stream size                              : 28.0 MiB (0%)
Title                                    : Turkish-PGS
Language                                 : Turkish
Default                                  : No
Forced                                   : No
Original source medium                   : Blu-ray

Text #32
ID                                       : 36
ID in the original source medium         : 4798 (0x12BE)
Format                                   : PGS
Muxing mode                              : zlib
Codec ID                                 : S_HDMV/PGS
Codec ID/Info                            : Picture based subtitle format used on BDs/HD-DVDs
Duration                                 : 1 h 51 min
Bit rate                                 : 38.6 kb/s
Count of elements                        : 3492
Stream size                              : 30.8 MiB (0%)
Title                                    : Ukrainian-PGS
Language                                 : Ukrainian
Default                                  : No
Forced                                   : No
Original source medium                   : Blu-ray

Menu
00:00:00.000                             : en:Chapter 01
00:06:22.340                             : en:Chapter 02
00:13:25.095                             : en:Chapter 03
00:20:33.065                             : en:Chapter 04
00:27:08.752                             : en:Chapter 05
00:34:13.718                             : en:Chapter 06
00:41:57.932                             : en:Chapter 07
00:47:01.944                             : en:Chapter 08
00:54:07.953                             : en:Chapter 09
01:00:00.597                             : en:Chapter 10
01:08:25.601                             : en:Chapter 11
01:13:37.538                             : en:Chapter 12
01:21:01.857                             : en:Chapter 13
01:26:40.361                             : en:Chapter 14
01:33:41.324                             : en:Chapter 15
01:38:44.293                             : en:Chapter 16






d028a2b136fbc9d8fbf987891b164d41.zip (119.74 KB)

回复

使用道具 举报

小黑屋|西西电影论坛 ( 闽ICP备160050789号-1 )

所有资源来自网络采集,如果侵犯了您的权益,请发邮件至 [email protected],立即清除相关链接

GMT+8, 2020-10-23 17:16 , Processed in 0.120114 second(s), 27 queries .

Powered by Discuz! X3.2

© 2001-2013 Comsenz Inc.

快速回复 返回顶部 返回列表