西西电影论坛

 找回密码
 立即注册

侏罗纪游戏 The.Jurassic.Games.2018.1080p.BluRay.x264.DD5.1-CHD 6.36GB

[复制链接]

电影下载 发表于 2020-10-14 10:45:50 | 显示全部楼层 |阅读模式
帖子完整标题:侏罗纪游戏 The.Jurassic.Games.2018.1080p.BluRay.x264.DD5.1-CHD 6.36GB




◎译  名 侏罗纪游戏
◎片  名 The Jurassic Games
◎年  代 2018
◎产  地 美国
◎类  别 科幻 / 惊悚
◎语  言 英语
◎上映日期 2018-05-21(英国)
◎IMDb评分  3.8/10 from 2064 users
◎片  长 86分钟
◎主  演 凯特·琼斯 Cate Jones
       布鲁斯·戴维斯 Bruce Davis

◎标  签 科幻 | 恐龙 | 2018 | 电影 | 英国 | 美国电影 | 美国 | 动作

◎简  介

  在不遠的將來,每年十位世上最致命的死刑犯,將會在「侏羅 紀遊戲」競爭以獲得自由。在這場電視實境秀中,參賽者必須對抗兇猛的恐龍和毫不留情的對手,最後的倖存者將獲得前所未有的自由、名望和財富!
Video
ID                                       : 1
Format                                   : AVC
Format/Info                              : Advanced Video Codec
Format settings                          : CABAC / 4 Ref Frames
Format settings, CABAC                   : Yes
Format settings, ReFrames                : 4 frames
Codec ID                                 : V_MPEG4/ISO/AVC
Duration                                 : 1 h 26 min
Bit rate                                 : 10.1 Mb/s
Width                                    : 1 920 pixels
Height                                   : 806 pixels
Display aspect ratio                     : 2.40:1
Frame rate mode                          : Constant
Frame rate                               : 23.976 (24000/1001/189150) FPS
Color space                              : YUV
Chroma subsampling                       : 4:2:0
Bit depth                                : 8 bits
Scan type                                : Progressive
Bits/(Pixel*Frame)                       : 0.272
Stream size                              : 6.09 GiB (96%)
Writing library                          : x264 core 155 r2867+74 66b5600 t_mod_Custom_2  
Encoding settings                        : cabac=1 / ref=4 / deblock=1:-3:-3 / analyse=0x3:0x113 / me=umh / subme=10 / psy=1 / fade_compensate=0.00 / psy_rd=0.90:0.10 / mixed_ref=1 / me_range=48 / chroma_me=1 / trellis=2 / 8x8dct=1 / cqm=0 / deadzone=21,11 / fast_pskip=0 / chroma_qp_offset=-2 / threads=18 / lookahead_threads=3 / sliced_threads=0 / nr=0 / decimate=1 / interlaced=0 / bluray_compat=0 / constrained_intra=0 / fgo=0 / bframes=8 / b_pyramid=2 / b_adapt=2 / b_bias=0 / direct=3 / weightb=1 / open_gop=0 / weightp=2 / keyint=250 / keyint_min=23 / scenecut=40 / intra_refresh=0 / rc_lookahead=40 / rc=crf / mbtree=0 / crf=19.0000 / qcomp=0.70 / qpmin=0:0:0 / qpmax=69:69:69 / qpstep=4 / vbv_maxrate=35000 / vbv_bufsize=35000 / crf_max=0.0 / nal_hrd=none / filler=0 / ip_ratio=1.40 / pb_ratio=1.30 / aq=3:0.90 / aq-sensitivity=10.00 / aq-factor=1.00:1.00:1.00 / aq2=0 / aq3=2:[0.50:0.50]:[0.50:0.50]:[0.50:0.50]:[0.50:0.50] / aq3-sensitivity=10.00 / aq3-factor=[1.00:1.00]:[1.00:1.00]:[1.00:1.00] / aq3-boundary=192:64:24
Language                                 : English
Default                                  : Yes
Forced                                   : No
Color range                              : Limited
Matrix coefficients                      : BT.709

Audio
ID                                       : 2
Format                                   : AC-3
Format/Info                              : Audio Coding 3
Codec ID                                 : A_AC3
Duration                                 : 1 h 26 min
Bit rate mode                            : Constant
Bit rate                                 : 448 kb/s
Channel(s)                               : 6 channels
Channel positions                        : Front: L C R, Side: L R, LFE
Sampling rate                            : 48.0 kHz
Frame rate                               : 31.250 FPS (1536 SPF)
Bit depth                                : 16 bits
Compression mode                         : Lossy
Stream size                              : 277 MiB (4%)
Language                                 : English
Service kind                             : Complete Main
Default                                  : Yes
Forced                                   : No

Menu
00:00:00.000                             : en:00:00:00.000
00:09:58.598                             : en:00:09:58.598
00:20:16.215                             : en:00:20:16.215
00:30:14.813                             : en:00:30:14.813
00:39:41.880                             : en:00:39:41.880
00:49:19.456                             : en:00:49:19.456
00:59:48.085                             : en:00:59:48.085
01:08:52.128                             : en:01:08:52.128
01:22:45.961                             : en:01:22:45.961




                                                                                                                                                                                                        


415ec1cfc5730a53015b49f835a04fbf.zip (65.1 KB)

回复

使用道具 举报

小黑屋|西西电影论坛 ( 闽ICP备160050789号-1 )

所有资源来自网络采集,如果侵犯了您的权益,请发邮件至 [email protected],立即清除相关链接

GMT+8, 2020-10-25 15:31 , Processed in 0.123052 second(s), 27 queries .

Powered by Discuz! X3.2

© 2001-2013 Comsenz Inc.

快速回复 返回顶部 返回列表