西西电影论坛

 找回密码
 立即注册

何以为家 Capernaum.2018.PROPER.LIMITED.1080p.BluRay.x264-USURY 8.78GB

[复制链接]

电影下载 发表于 2020-10-15 08:03:37 | 显示全部楼层 |阅读模式
帖子完整标题:何以为家 Capernaum.2018.PROPER.LIMITED.1080p.BluRay.x264-USURY 8.78GB




◎译  名 何以为家 / Cafarnaúm / Capernaum / Capharnaüm / 我想有个家(台) / 星仔打官司(港) / 迦百农
◎片  名 ????????
◎年  代 2018
◎产  地 黎巴嫩 / 法国 / 美国
◎类  别 剧情
◎语  言 阿拉伯语 / 阿姆哈拉语
◎上映日期 2018-05-17(戛纳电影节) / 2018-09-20(黎巴嫩) / 2019-04-29(中国大陆)
◎IMDb评分  8.4/10 from 51782 users
◎片  长 126分钟
◎导  演 娜丁·拉巴基 Nadine Labaki
◎编  剧 娜丁·拉巴基 Nadine Labaki / 吉哈德·霍加里 Jihad Hojeily / 米歇尔·凯斯沃尼 Michelle Keserwany / 乔治斯·哈巴兹 Georges Khabbaz / 哈立德·穆扎纳 Khaled Mouzanar
◎主  演 扎因·拉费阿 Zain al-Rafeea
       约丹诺斯·希费罗 Yordanos Shiferaw
       博鲁瓦蒂夫·特雷杰·班科尔 Boluwatife Treasure Bankole
       卡萨尔·艾尔·哈达德 Kawsar Al Haddad
       法迪·尤瑟夫 Fadi Yousef
       海塔·塞德拉·伊扎姆 Haita 'Cedra' Izzam
       阿拉·乔什涅 Alaa Chouchnieh
       娜丁·拉巴基 Nadine Labaki
       埃利亚斯·库利 Elias Khoury
       努尔·艾尔·侯赛尼 Nour El Husseini


◎标  签 人性 | 儿童 | 难民 | 社会 | 成长 | 家庭 | 黎巴嫩 | 剧情

◎简  介   

  法庭上,十二岁的男孩赞恩向法官状告他的亲生父母,原因是,他们给了他生命。是什么样的经历让一个孩子做出如此不可思议的举动?故事中,赞恩的父母在无力抚养和教育的状况下依然不停生育,作为家中的长子赞恩,弱小的肩膀承担了无数生活的重压。当妹妹被强行卖给商贩为妻时,赞恩愤怒离家,之后遇到一对没有合法身份的母子,相互扶持勉强生活。然而生活并没有眷顾赞恩,重重磨难迫使他做出了令人震惊的举动……

◎获奖情况  

  第91届奥斯卡金像奖(2019)
  最佳外语片(提名) 娜丁·拉巴基

  第71届戛纳电影节(2018)
  主竞赛单元 金棕榈奖(提名) 娜丁·拉巴基
  主竞赛单元 评审团奖

  第76届金球奖(2019)
  电影类 最佳外语片(提名)

  第72届英国电影学院奖(2019)
  电影奖 最佳非英语片(提名) 娜丁·拉巴基 / 哈立德·穆扎纳

  第44届法国凯撒电影奖(2019)
  最佳外语片(提名)

  第48届鹿特丹国际电影节(2019)
  观众奖 娜丁·拉巴基

  第66届美国音效剪辑协会奖(2019)
  金卷轴奖 最佳外语片音效剪辑(提名)

  第24届美国评论家选择电影奖(2019)
  最佳外语片(提名)

  第21届英国独立电影奖(2018)
  最佳外国独立电影(提名) 娜丁·拉巴基

  第17届华盛顿影评人协会奖(2018)
  最佳外语片(提名)

  第31届芝加哥影评人协会奖(2018)
  最佳外语片(提名)

  第30届芝加哥影评人协会奖(2017)
  最佳外语片(提名)

  第6届豆瓣电影年度榜单(2019)
  评分最高的外语电影
  最受关注的院线电影(提名)
Video
ID                                       : 1
Format                                   : AVC
Format settings                          : CABAC / 5 Ref Frames
Format settings, CABAC                   : Yes
Format settings, Reference frames        : 5 frames
Codec ID                                 : V_MPEG4/ISO/AVC
Duration                                 : 2 h 2 min
Bit rate                                 : 8 671 kb/s
Width                                    : 1 920 pixels
Height                                   : 808 pixels
Display aspect ratio                     : 2.40:1
Frame rate mode                          : Constant
Frame rate                               : 23.976 (24000/1001/189150) FPS
Color space                              : YUV
Chroma subsampling                       : 4:2:0
Bit depth                                : 8 bits
Scan type                                : Progressive
Bits/(Pixel*Frame)                       : 0.233
Stream size                              : 7.44 GiB (85%)
Writing library                          : x264 core 157 r2969 d4099dd
Encoding settings                        : cabac=1 / ref=5 / deblock=1:-3:-3 / analyse=0x3:0x133 / me=umh / subme=9 / psy=1 / psy_rd=1.00:0.00 / mixed_ref=1 / me_range=16 / chroma_me=1 / trellis=2 / 8x8dct=1 / cqm=0 / deadzone=21,11 / fast_pskip=0 / chroma_qp_offset=-2 / threads=18 / lookahead_threads=1 / sliced_threads=0 / nr=0 / decimate=1 / interlaced=0 / bluray_compat=0 / constrained_intra=0 / bframes=3 / b_pyramid=2 / b_adapt=1 / b_bias=0 / direct=3 / weightb=1 / open_gop=0 / weightp=2 / keyint=240 / keyint_min=24 / scenecut=40 / intra_refresh=0 / rc_lookahead=50 / rc=2pass / mbtree=1 / bitrate=8671 / ratetol=1.0 / qcomp=0.60 / qpmin=0 / qpmax=69 / qpstep=4 / cplxblur=20.0 / qblur=0.5 / ip_ratio=1.40 / aq=1:1.00
Language                                 : English
Default                                  : Yes
Forced                                   : No

Audio
ID                                       : 2
Format                                   : DTS
Format/Info                              : Digital Theater Systems
Codec ID                                 : A_DTS
Duration                                 : 2 h 2 min
Bit rate mode                            : Constant
Bit rate                                 : 1 509 kb/s
Channel(s)                               : 6 channels
Channel layout                           : C L R Ls Rs LFE
Sampling rate                            : 48.0 kHz
Frame rate                               : 93.750 FPS (512 SPF)
Bit depth                                : 24 bits
Compression mode                         : Lossy
Stream size                              : 1.30 GiB (15%)
Language                                 : Arabic
Default                                  : Yes
Forced                                   : No

Text #1
ID                                       : 3
Format                                   : UTF-8
Codec ID                                 : S_TEXT/UTF8
Codec ID/Info                            : UTF-8 Plain Text
Duration                                 : 1 h 55 min
Bit rate                                 : 37 b/s
Count of elements                        : 1108
Stream size                              : 32.2 KiB (0%)
Title                                    : English forced
Language                                 : English
Default                                  : Yes
Forced                                   : Yes

Text #2
ID                                       : 4
Format                                   : UTF-8
Codec ID                                 : S_TEXT/UTF8
Codec ID/Info                            : UTF-8 Plain Text
Duration                                 : 1 h 55 min
Bit rate                                 : 37 b/s
Count of elements                        : 1118
Stream size                              : 32.1 KiB (0%)
Title                                    : English
Language                                 : English
Default                                  : No
Forced                                   : No

Text #3
ID                                       : 5
Format                                   : UTF-8
Codec ID                                 : S_TEXT/UTF8
Codec ID/Info                            : UTF-8 Plain Text
Duration                                 : 1 h 56 min
Bit rate                                 : 46 b/s
Count of elements                        : 1419
Stream size                              : 39.9 KiB (0%)
Title                                    : English SDH
Language                                 : English
Default                                  : No
Forced                                   : No

Menu
00:00:00.000                             : en:00:00:00.000
00:10:00.600                             : en:00:10:00.600
00:20:01.200                             : en:00:20:01.200
00:30:01.800                             : en:00:30:01.800
00:40:02.400                             : en:00:40:02.400
00:50:03.000                             : en:00:50:03.000
01:00:03.600                             : en:01:00:03.600
01:10:04.200                             : en:01:10:04.200
01:20:04.800                             : en:01:20:04.800
01:30:05.400                             : en:01:30:05.400
01:40:06.000                             : en:01:40:06.000
01:50:06.600                             : en:01:50:06.600
01:57:07.646                             : en:01:57:07.646




                                                                                                                                                                                                        
                                                                                                                                                                                                                                          
f568d8bd3a5bda25b2295a7af81ca1c3.zip (45.47 KB)

回复

使用道具 举报

小黑屋|西西电影论坛 ( 闽ICP备160050789号-1 )

所有资源来自网络采集,如果侵犯了您的权益,请发邮件至 [email protected],立即清除相关链接

GMT+8, 2020-10-27 03:49 , Processed in 0.134960 second(s), 27 queries .

Powered by Discuz! X3.2

© 2001-2013 Comsenz Inc.

快速回复 返回顶部 返回列表