西西电影论坛

 找回密码
 立即注册

这就是感动我们的东西 What.Moves.Me.1989.720p.BluRay.x264-BiPOLAR 74...

[复制链接]

帖子完整标题:这就是感动我们的东西 What.Moves.Me.1989.720p.BluRay.x264-BiPOLAR 747.15MB




◎译  名 这就是感动我们的东西
◎片  名 ce qui me meut
◎年  代 1989
◎产  地 法国
◎类  别 短片
◎语  言 法语
◎上映日期 1989
◎IMDb评分  6.3/10 from 46 users
◎片  长 24分钟
◎导  演 塞德里克·克拉皮斯 Cédric Klapisch

◎标  签 短片 | 法国 | Cédric_Klapisch | 1989 | 法国电影 | 法國 | 搞笑 | Short

◎简  介

  1930年,埃蒂尼 朱尔斯麦利100周年诞辰典礼上科学界展示的认为是世界第一部的真人电影
Video
ID                                       : 1
Format                                   : AVC
Format settings                          : CABAC / 12 Ref Frames
Format settings, CABAC                   : Yes
Format settings, Reference frames        : 12 frames
Codec ID                                 : V_MPEG4/ISO/AVC
Duration                                 : 22 min 14 s
Bit rate                                 : 4 127 kb/s
Width                                    : 920 pixels
Height                                   : 720 pixels
Display aspect ratio                     : 1.278
Frame rate mode                          : Constant
Frame rate                               : 23.976 (24000/1001/189150) FPS
Color space                              : YUV
Chroma subsampling                       : 4:2:0
Bit depth                                : 8 bits
Scan type                                : Progressive
Bits/(Pixel*Frame)                       : 0.260
Stream size                              : 657 MiB (88%)
Writing library                          : x264 core 161 r3018 db0d417
Encoding settings                        : cabac=1 / ref=12 / deblock=1:-3:-3 / analyse=0x3:0x133 / me=umh / subme=10 / psy=1 / psy_rd=1.00:0.15 / mixed_ref=1 / me_range=24 / chroma_me=1 / trellis=2 / 8x8dct=1 / cqm=0 / deadzone=21,11 / fast_pskip=1 / chroma_qp_offset=-3 / threads=18 / lookahead_threads=3 / sliced_threads=0 / nr=0 / decimate=1 / interlaced=0 / bluray_compat=0 / constrained_intra=0 / bframes=8 / b_pyramid=2 / b_adapt=2 / b_bias=0 / direct=3 / weightb=1 / open_gop=0 / weightp=2 / keyint=250 / keyint_min=23 / scenecut=40 / intra_refresh=0 / rc_lookahead=60 / rc=crf / mbtree=1 / crf=17.0 / qcomp=0.60 / qpmin=0 / qpmax=69 / qpstep=4 / ip_ratio=1.40 / aq=3:0.50
Language                                 : English
Default                                  : Yes
Forced                                   : No
Color range                              : Limited
Matrix coefficients                      : BT.709

Audio
ID                                       : 2
Format                                   : FLAC
Format/Info                              : Free Lossless Audio Codec
Codec ID                                 : A_FLAC
Duration                                 : 22 min 14 s
Bit rate mode                            : Variable
Bit rate                                 : 558 kb/s
Channel(s)                               : 2 channels
Channel layout                           : L R
Sampling rate                            : 48.0 kHz
Frame rate                               : 11.719 FPS (4096 SPF)
Bit depth                                : 16 bits
Compression mode                         : Lossless
Stream size                              : 88.8 MiB (12%)
Writing library                          : libFLAC 1.2.1 (UTC 2007-09-17)
Language                                 : French
Default                                  : Yes
Forced                                   : No

Text #1
ID                                       : 3
Format                                   : UTF-8
Codec ID                                 : S_TEXT/UTF8
Codec ID/Info                            : UTF-8 Plain Text
Duration                                 : 20 min 29 s
Bit rate                                 : 54 b/s
Count of elements                        : 209
Stream size                              : 8.12 KiB (0%)
Title                                    : English
Language                                 : English
Default                                  : Yes
Forced                                   : Yes

Text #2
ID                                       : 4
Format                                   : PGS
Muxing mode                              : zlib
Codec ID                                 : S_HDMV/PGS
Codec ID/Info                            : Picture based subtitle format used on BDs/HD-DVDs
Duration                                 : 20 min 29 s
Bit rate                                 : 8 618 b/s
Count of elements                        : 418
Stream size                              : 1.26 MiB (0%)
Title                                    : English
Language                                 : English
Default                                  : No
Forced                                   : No




                                                                                                                                                                                                        
                                                                                                                                                                                                                                                                                                                                                                                                                                                                                                      
2f0de2e5d27046b5e01727793be2ba24.zip (15.29 KB)

回复

使用道具 举报

小黑屋|西西电影论坛 ( 闽ICP备160050789号-1 )

所有资源来自网络采集,如果侵犯了您的权益,请发邮件至 [email protected],立即清除相关链接

GMT+8, 2020-10-21 02:03 , Processed in 0.117618 second(s), 27 queries .

Powered by Discuz! X3.2

© 2001-2013 Comsenz Inc.

快速回复 返回顶部 返回列表