西西电影论坛

 找回密码
 立即注册

梦工厂/塔姆法里克 Dreamfactory.2019.1080p.BluRay.x264-HANDJOB 10.97GB

[复制链接]

电影下载 发表于 2020-10-16 08:16:23 | 显示全部楼层 |阅读模式
帖子完整标题:梦工厂/塔姆法里克 Dreamfactory.2019.1080p.BluRay.x264-HANDJOB 10.97GB




◎译  名 梦工厂/塔姆法里克/寻爱梦工厂(台)/爱在光影追梦时
◎片  名 Traumfabrik
◎年  代 2019
◎产  地 德国
◎类  别 喜剧 / 爱情 / 战争
◎语  言 德语
◎上映日期 2019-07-04(德国)
◎IMDb评分  6.5/10 from 542 users
◎片  长 128分钟
◎导  演 马丁·施莱尔 Martin Schreier
◎编  剧 阿兰德·雷默斯 Arend Remmers / 马丁·施莱尔 Martin Schreier / 汤姆·齐克勒 Tom Zickler / 塞巴斯蒂安·弗朗那 Sebastian Fruner
◎主  演 艾米利亚·舒勒 Emilia Schüle
       肯·杜肯 Ken Duken
       思文佳·永 Svenja Jung
       安纳托·陶布曼 Anatole Taubman
       尼科莱·金斯基 Nikolai Kinski
       海纳·劳特尔巴赫 Heiner Lauterbach
       莱恩·库德里亚维斯基 Lenn Kudrjawizki
       丹尼斯·莫因 Dennis Mojen
       威尔弗里德·霍赫霍尔丁格 Wilfried Hochholdinger
       阿克瑟·施奈伯 Axel Schreiber
       萨比娜·巴斯 Sabine Bach
       艾莲娜·萨尔瓦·冈萨雷斯 Ellenie Salvo González
       亚历山大·雅辛 Alexander Yassin
       托拜厄斯·劳特伯格 Tobias Lauterberg

◎标  签 爱情 | 德国 | 梦幻爱情经典 | 喜剧 | 梦想 | 温情 | 2019 | 经典

◎简  介

  1961年夏, 艾米尔·黑尔贝格刚刚从军队退役复员。 他来 到了位于巴伯斯贝格的DEFA电影公司:这是一个充斥着无尽的魔幻感和极富创造性的乐观主义的地方。在一扇巨大的拱门后面,他看到了历史悠久的被称为“梦工厂”的电影公司。他的哥哥亚亚历山大在这家公司的置景组工作, 他给艾米尔谋到了一份差事。虽然艾米尔对电影行业知之 甚少,但因为他还没有任何对未来的规划,便勉强接下了 差事。然而,当他为一部电影做群演时,他遇见了一位名 叫米露的法国舞者,一切开始发生变化......
  
  米露是法国知名电影明星碧翠斯·莫莱的舞蹈替身。 艾米尔被她美丽的外貌和惊人的舞姿所折服,对她一见钟情。 几次三番的尝试之后,艾米尔终于和米露共进了一次临时起意的晚餐。不幸的是,米露第二天就必须回法国,于是艾米尔准备在第二天清晨给米露一个惊喜。
  
  艾米尔通宵为米露打造了一个梦幻般的舞蹈的舞台。第二天早上,当米露试图从位于西柏林的酒店前往巴伯斯贝格的时候,边境被关闭了,没有任何人可以通过。这天便是1961年的8月13日,柏林墙筑起的日子。米露只能登上返回法国的飞机。
  
  米露远在她的家乡法国,似乎再也无法见到艾米尔。而艾米尔作为一名率性奔放热血青年,他不愿这么快放弃。他抓住机会,摇身一变成了一名导演。他为了能再次见到米露,制定了一套疯狂又危险的计划——艾米尔决定制作一部让碧翠斯无法拒绝的电影。而他的计划奏效了,因为这位女神根本无法抗拒在《埃及艳后》中担纲主演的提议。
  
  一年过去了,电影准备在巴伯斯贝格开机。但谁都没有预料到的是,米露已经和法国男演员奥马尔订婚了。艾米尔悲伤又绝望,他的计划注定失败吗?摆在他面前的阻碍重重:一个处于混乱之中的电影公司、一个固执专政的公司老板、一次疯狂的电影拍摄、还有最令人担忧的是,他完全混乱的情绪。他应该继续为爱拼搏吗?
Video
ID                                       : 1
Format                                   : AVC
Format/Info                              : Advanced Video Codec
Format settings                          : CABAC / 5 Ref Frames
Format settings, CABAC                   : Yes
Format settings, Reference frames        : 5 frames
Codec ID                                 : V_MPEG4/ISO/AVC
Duration                                 : 2 h 7 min
Bit rate                                 : 11.7 Mb/s
Width                                    : 1 920 pixels
Height                                   : 800 pixels
Display aspect ratio                     : 2.40:1
Frame rate mode                          : Constant
Frame rate                               : 24.000 FPS
Color space                              : YUV
Chroma subsampling                       : 4:2:0
Bit depth                                : 8 bits
Scan type                                : Progressive
Bits/(Pixel*Frame)                       : 0.316
Stream size                              : 10.4 GiB (95%)
Writing library                          : x264 core 157 r2935 545de2f
Encoding settings                        : cabac=1 / ref=5 / deblock=1:-3:-3 / analyse=0x3:0x133 / me=umh / subme=10 / psy=1 / psy_rd=1.00:0.00 / mixed_ref=1 / me_range=32 / chroma_me=1 / trellis=2 / 8x8dct=1 / cqm=0 / deadzone=21,11 / fast_pskip=0 / chroma_qp_offset=-2 / threads=18 / lookahead_threads=4 / sliced_threads=0 / nr=0 / decimate=0 / interlaced=0 / bluray_compat=0 / constrained_intra=0 / bframes=16 / b_pyramid=2 / b_adapt=2 / b_bias=0 / direct=3 / weightb=1 / open_gop=0 / weightp=2 / keyint=240 / keyint_min=24 / scenecut=40 / intra_refresh=0 / rc_lookahead=60 / rc=crf / mbtree=0 / crf=16.8 / qcomp=0.60 / qpmin=0 / qpmax=69 / qpstep=4 / vbv_maxrate=62500 / vbv_bufsize=78125 / crf_max=0.0 / nal_hrd=none / filler=0 / ip_ratio=1.40 / pb_ratio=1.30 / aq=2:1.00
Default                                  : Yes
Forced                                   : No
Color range                              : Limited
Color primaries                          : BT.709
Transfer characteristics                 : BT.709
Matrix coefficients                      : BT.709

Audio
ID                                       : 2
Format                                   : AC-3
Format/Info                              : Audio Coding 3
Commercial name                          : Dolby Digital
Codec ID                                 : A_AC3
Duration                                 : 2 h 7 min
Bit rate mode                            : Constant
Bit rate                                 : 640 kb/s
Channel(s)                               : 6 channels
Channel layout                           : L R C LFE Ls Rs
Sampling rate                            : 48.0 kHz
Frame rate                               : 31.250 FPS (1536 SPF)
Compression mode                         : Lossy
Stream size                              : 584 MiB (5%)
Language                                 : German
Service kind                             : Complete Main
Default                                  : Yes
Forced                                   : No

Text #1
ID                                       : 3
Format                                   : UTF-8
Codec ID                                 : S_TEXT/UTF8
Codec ID/Info                            : UTF-8 Plain Text
Duration                                 : 1 h 57 min
Bit rate                                 : 41 b/s
Count of elements                        : 1181
Stream size                              : 36.1 KiB (0%)
Language                                 : English
Default                                  : Yes
Forced                                   : No

Text #2
ID                                       : 4
Format                                   : PGS
Muxing mode                              : zlib
Codec ID                                 : S_HDMV/PGS
Codec ID/Info                            : Picture based subtitle format used on BDs/HD-DVDs
Duration                                 : 2 h 6 min
Bit rate                                 : 25.5 kb/s
Count of elements                        : 2777
Stream size                              : 23.1 MiB (0%)
Language                                 : German
Default                                  : No
Forced                                   : No

Menu
00:00:00.000                             : :Kapitel 01
00:08:50.625                             : :Kapitel 02
00:19:43.042                             : :Kapitel 03
00:30:13.250                             : :Kapitel 04
00:40:10.125                             : :Kapitel 05
00:49:56.125                             : :Kapitel 06
01:00:00.083                             : :Kapitel 07
01:09:19.083                             : :Kapitel 08
01:18:18.917                             : :Kapitel 09
01:30:05.375                             : :Kapitel 10
01:41:00.583                             : :Kapitel 11
01:49:00.792                             : :Kapitel 12
01:59:43.417                             : :Kapitel 13




                                                                                                                                                                                                        
                                                                                                                                                                                                                                                                                                                                                                                                                                                                                    
07f86b3def0e9cea91f99ed593f393f5.zip (56.28 KB)

回复

使用道具 举报

小黑屋|西西电影论坛 ( 闽ICP备160050789号-1 )

所有资源来自网络采集,如果侵犯了您的权益,请发邮件至 [email protected],立即清除相关链接

GMT+8, 2020-10-25 16:46 , Processed in 0.115731 second(s), 27 queries .

Powered by Discuz! X3.2

© 2001-2013 Comsenz Inc.

快速回复 返回顶部 返回列表