西西电影论坛

 找回密码
 立即注册

不义之财 Pickings.2018.1080p.BluRay.x264.DD2.0-FGT 8.24GB

[复制链接]

电影下载 发表于 2020-10-16 08:16:23 | 显示全部楼层 |阅读模式
帖子完整标题:不义之财 Pickings.2018.1080p.BluRay.x264.DD2.0-FGT 8.24GB




◎译  名 不义之财
◎片  名 Pickings
◎年  代 2018
◎产  地 美国
◎类  别 剧情 / 动作 / 犯罪
◎语  言 英语
◎上映日期 2018-03-02(美国)
◎IMDb评分  5.2/10 from 893 users
◎片  长 95分钟
◎导  演 Usher Morgan
◎编  剧 Usher Morgan
◎主  演 Michelle Holland
       Lily Brooks O'Briant
       Katie Vincent
       Reese Grande
       Julie Reifers
       Joel Bernard
       Yaron Urbas
       Usher Morgan
       Samantha Zaino
       Lynne Jordan


◎简  介   

  When a short-tempered mobster and his gang of thugs try to shake down a neighborhood bar, they're soon confronted with the wrath of its owner - a mysterious southern mother with a dangerous past.
Video
ID                                       : 1
Format                                   : AVC
Format/Info                              : Advanced Video Codec
Format settings                          : CABAC / 4 Ref Frames
Format settings, CABAC                   : Yes
Format settings, Reference frames        : 4 frames
Codec ID                                 : V_MPEG4/ISO/AVC
Duration                                 : 1 h 41 min
Bit rate                                 : 11.5 Mb/s
Width                                    : 1 920 pixels
Height                                   : 1 012 pixels
Display aspect ratio                     : 1.897
Frame rate mode                          : Constant
Frame rate                               : 24.000 FPS
Color space                              : YUV
Chroma subsampling                       : 4:2:0
Bit depth                                : 8 bits
Scan type                                : Progressive
Bits/(Pixel*Frame)                       : 0.247
Stream size                              : 8.11 GiB (98%)
Title                                    : Pickings.2018.1080p.BluRay.x264.DD2.0-FGT
Writing library                          : x264 core 148 r2748 97eaef2
Encoding settings                        : cabac=1 / ref=4 / deblock=1:-2:-2 / analyse=0x3:0x113 / me=umh / subme=9 / psy=1 / psy_rd=1.00:0.15 / mixed_ref=1 / me_range=16 / chroma_me=1 / trellis=2 / 8x8dct=1 / cqm=0 / deadzone=21,11 / fast_pskip=1 / chroma_qp_offset=-3 / threads=24 / lookahead_threads=3 / sliced_threads=0 / nr=0 / decimate=1 / interlaced=0 / bluray_compat=0 / constrained_intra=0 / bframes=3 / b_pyramid=2 / b_adapt=1 / b_bias=0 / direct=3 / weightb=1 / open_gop=0 / weightp=2 / keyint=250 / keyint_min=25 / scenecut=40 / intra_refresh=0 / rc_lookahead=50 / rc=2pass / mbtree=1 / bitrate=11500 / ratetol=1.0 / qcomp=0.60 / qpmin=0 / qpmax=69 / qpstep=4 / cplxblur=20.0 / qblur=0.5 / vbv_maxrate=31250 / vbv_bufsize=31250 / nal_hrd=none / filler=0 / ip_ratio=1.40 / aq=1:1.00
Language                                 : English
Default                                  : Yes
Forced                                   : No

Audio
ID                                       : 2
Format                                   : AC-3
Format/Info                              : Audio Coding 3
Commercial name                          : Dolby Digital
Codec ID                                 : A_AC3
Duration                                 : 1 h 41 min
Bit rate mode                            : Constant
Bit rate                                 : 192 kb/s
Channel(s)                               : 2 channels
Channel layout                           : L R
Sampling rate                            : 48.0 kHz
Frame rate                               : 31.250 FPS (1536 SPF)
Bit depth                                : 16 bits
Compression mode                         : Lossy
Stream size                              : 139 MiB (2%)
Title                                    : Pickings.2018.1080p.BluRay.x264.DD2.0-FGT
Language                                 : English
Service kind                             : Complete Main
Default                                  : Yes
Forced                                   : No

Text
ID                                       : 3
Format                                   : UTF-8
Codec ID                                 : S_TEXT/UTF8
Codec ID/Info                            : UTF-8 Plain Text
Duration                                 : 1 h 40 min
Bit rate                                 : 41 b/s
Count of elements                        : 1142
Stream size                              : 30.2 KiB (0%)
Language                                 : English
Default                                  : Yes
Forced                                   : No

Menu
00:00:00.000                             : en:Chapter 01
00:07:58.958                             : en:Chapter 02
00:13:10.708                             : en:Chapter 03
00:19:37.000                             : en:Chapter 04
00:26:32.875                             : en:Chapter 05
00:32:32.208                             : en:Chapter 06
00:39:07.958                             : en:Chapter 07
00:43:16.083                             : en:Chapter 08
00:46:06.500                             : en:Chapter 09
00:51:45.042                             : en:Chapter 10
01:02:59.167                             : en:Chapter 11
01:07:15.333                             : en:Chapter 12
01:12:51.792                             : en:Chapter 13
01:17:30.167                             : en:Chapter 14
01:29:47.667                             : en:Chapter 15
01:36:15.542                             : en:Chapter 16




                                                                                                                                                                                                        


f42bd9b96688fcdc080287bbf1a80416.zip (41.85 KB)

回复

使用道具 举报

小黑屋|西西电影论坛 ( 闽ICP备160050789号-1 )

所有资源来自网络采集,如果侵犯了您的权益,请发邮件至 [email protected],立即清除相关链接

GMT+8, 2020-10-25 15:47 , Processed in 0.104820 second(s), 27 queries .

Powered by Discuz! X3.2

© 2001-2013 Comsenz Inc.

快速回复 返回顶部 返回列表