西西电影论坛

 找回密码
 立即注册

放射性物质/以光之名 Radioactive.2019.1080p.BluRay.x264.DTS-HD.MA.5.1...

[复制链接]

电影下载 发表于 2020-10-17 11:34:53 | 显示全部楼层 |阅读模式
帖子完整标题:放射性物质/以光之名 Radioactive.2019.1080p.BluRay.x264.DTS-HD.MA.5.1-FGT 11.89GB




◎译  名 放射性物质/以光之名/居礼夫人:一代科研传奇(港)/居礼夫人:放射永恒(台)/放射性
◎片  名 Radioactive
◎年  代 2019
◎产  地 英国,匈牙利
◎类  别 剧情 / 传记
◎语  言 英语
◎上映日期 2019-09-14(多伦多电影节) / 2020-03-20(英国)
◎片  长 109分钟
◎导  演 玛嘉·莎塔琵 Marjane Satrapi
◎编  剧 杰克·索恩 Jack Thorne
◎主  演 裴淳华 Rosamund Pike
       萨姆·赖利 Sam Riley
       安雅·泰勒-乔伊 Anya Taylor-Joy
       阿奈林·巴纳德 Aneurin Barnard
       珊·布鲁克 Sian Brooke
       凯瑟琳·帕金森 Katherine Parkinson
       西蒙·拉塞尔·比尔 Simon Russell Beale
       蒂姆·伍德沃德 Tim Woodward
       乔纳森·阿里斯 Jonathan Aris
       弗兰西斯卡·托朗西斯科 Franciska T?r?csik
       克里·约翰逊 Corey Johnson
       爱德华·戴维斯 Edward Davis
       迪米特里·格里特萨斯 Demetri Goritsas
       乔治娜·里奇 Georgina Rich
       理查德·皮泼 Richard Pepple
       印迪卡·沃森 Indica Watson
       迈克尔·古尔德 Michael Gould
       Mark C. Phelan
       米里亚姆·诺瓦克 Mirjam Novak
       Franciska T?r?csik

◎标  签 传记 | 女性 | 剧情 | 英国 | 裴淳华 | 2019 | 美国 | 电影

◎简  介

  基于Lauren Redniss所著小说《Marie & Pierre Curie: A Tale of Love and Fallout》,聚焦玛丽·居里和皮埃尔·居里夫妻对科学的探索和两人之间的关系。
Video
ID                                       : 1
Format                                   : AVC
Format/Info                              : Advanced Video Codec
Format settings                          : CABAC / 4 Ref Frames
Format settings, CABAC                   : Yes
Format settings, Reference frames        : 4 frames
Codec ID                                 : V_MPEG4/ISO/AVC
Duration                                 : 1 h 50 min
Bit rate                                 : 11.5 Mb/s
Width                                    : 1 920 pixels
Height                                   : 804 pixels
Display aspect ratio                     : 2.40:1
Frame rate mode                          : Constant
Frame rate                               : 24.000 FPS
Color space                              : YUV
Chroma subsampling                       : 4:2:0
Bit depth                                : 8 bits
Scan type                                : Progressive
Bits/(Pixel*Frame)                       : 0.310
Stream size                              : 8.83 GiB (74%)
Title                                    : Radioactive.2019.1080p.BluRay.x264.DTS-HD.MA.5.1-FGT
Writing library                          : x264 core 148 r2795M aaa9aa8
Encoding settings                        : cabac=1 / ref=4 / deblock=1:-2:-2 / analyse=0x3:0x113 / me=umh / subme=9 / psy=1 / psy_rd=1.00:0.15 / mixed_ref=1 / me_range=16 / chroma_me=1 / trellis=2 / 8x8dct=1 / cqm=0 / deadzone=21,11 / fast_pskip=1 / chroma_qp_offset=-3 / threads=72 / lookahead_threads=3 / sliced_threads=0 / nr=0 / decimate=1 / interlaced=0 / bluray_compat=0 / constrained_intra=0 / bframes=3 / b_pyramid=2 / b_adapt=1 / b_bias=0 / direct=3 / weightb=1 / open_gop=0 / weightp=2 / keyint=250 / keyint_min=25 / scenecut=40 / intra_refresh=0 / rc_lookahead=50 / rc=2pass / mbtree=1 / bitrate=11500 / ratetol=1.0 / qcomp=0.60 / qpmin=0 / qpmax=69 / qpstep=4 / cplxblur=20.0 / qblur=0.5 / vbv_maxrate=31250 / vbv_bufsize=31250 / nal_hrd=none / filler=0 / ip_ratio=1.40 / aq=1:1.00
Default                                  : Yes
Forced                                   : No

Audio
ID                                       : 2
ID in the original source medium         : 4353 (0x1101)
Format                                   : DTS XLL
Format/Info                              : Digital Theater Systems
Commercial name                          : DTS-HD Master Audio
Codec ID                                 : A_DTS
Duration                                 : 1 h 50 min
Bit rate mode                            : Variable
Bit rate                                 : 3 968 kb/s
Channel(s)                               : 6 channels
Channel layout                           : C L R Ls Rs LFE
Sampling rate                            : 48.0 kHz
Frame rate                               : 93.750 FPS (512 SPF)
Bit depth                                : 24 bits
Compression mode                         : Lossless
Stream size                              : 3.05 GiB (26%)
Title                                    : Radioactive.2019.1080p.BluRay.x264.DTS-HD.MA.5.1-FGT
Language                                 : English
Default                                  : Yes
Forced                                   : No
Original source medium                   : Blu-ray

Text
ID                                       : 3
Format                                   : UTF-8
Codec ID                                 : S_TEXT/UTF8
Codec ID/Info                            : UTF-8 Plain Text
Duration                                 : 1 h 39 min
Bit rate                                 : 52 b/s
Count of elements                        : 1193
Stream size                              : 38.2 KiB (0%)
Title                                    : English-SRT
Language                                 : English
Default                                  : Yes
Forced                                   : No

Menu
00:00:00.000                             : en:Chapter 01
00:09:48.208                             : en:Chapter 02
00:19:46.750                             : en:Chapter 03
00:27:48.083                             : en:Chapter 04
00:37:12.291                             : en:Chapter 05
00:47:03.083                             : en:Chapter 06
00:55:31.125                             : en:Chapter 07
01:05:06.708                             : en:Chapter 08
01:14:07.916                             : en:Chapter 09
01:22:46.000                             : en:Chapter 10
01:31:46.708                             : en:Chapter 11
01:41:00.541                             : en:Chapter 12




                                                                                                                                                                                                        
                                                                                                                                                                                                                                          
b2d1bd3cb6a844ec6c56c1ae21699471.zip (60.9 KB)

回复

使用道具 举报

小黑屋|西西电影论坛 ( 闽ICP备160050789号-1 )

所有资源来自网络采集,如果侵犯了您的权益,请发邮件至 [email protected],立即清除相关链接

GMT+8, 2020-10-27 02:59 , Processed in 0.112651 second(s), 27 queries .

Powered by Discuz! X3.2

© 2001-2013 Comsenz Inc.

快速回复 返回顶部 返回列表