西西电影论坛

 找回密码
 立即注册

黑暗王国/君王秩序 Dragon.Kingdom.2018.1080p.BluRay.x264-GETiT 6.68GB

[复制链接]

电影下载 发表于 2020-10-17 11:34:53 | 显示全部楼层 |阅读模式
帖子完整标题:黑暗王国/君王秩序 Dragon.Kingdom.2018.1080p.BluRay.x264-GETiT 6.68GB




◎译  名 黑暗王国 / 君王秩序
◎片  名 Order of Kings: The Dark Kingdom
◎年  代 2018
◎产  地 英国
◎类  别 冒险
◎语  言 英语
◎上映日期 2018-09-24(英国)
◎IMDb评分  3.6/10 from 432 users
◎片  长 85分钟
◎导  演 西蒙·威尔斯 Simon Wells
◎编  剧 Ben Loyd-Holmes
◎主  演 阿德里安·布薛特 Adrian Bouchet
       Domenique Fragale
       莎拉·费希恩 Zara Phythian


◎标  签 英国

◎简  介   

  A medieval fantasy drama following the 'Knights of the Damned'.
Video
ID                                       : 1
Format                                   : AVC
Format/Info                              : Advanced Video Codec
Format settings                          : CABAC / 5 Ref Frames
Format settings, CABAC                   : Yes
Format settings, Reference frames        : 5 frames
Codec ID                                 : V_MPEG4/ISO/AVC
Duration                                 : 1 h 25 min
Bit rate                                 : 9 227 kb/s
Width                                    : 1 920 pixels
Height                                   : 800 pixels
Display aspect ratio                     : 2.40:1
Frame rate mode                          : Constant
Frame rate                               : 25.000 FPS
Color space                              : YUV
Chroma subsampling                       : 4:2:0
Bit depth                                : 8 bits
Scan type                                : Progressive
Bits/(Pixel*Frame)                       : 0.240
Stream size                              : 5.52 GiB (83%)
Writing library                          : x264 core 160 r3000 33f9e14
Encoding settings                        : cabac=1 / ref=5 / deblock=1:-3:-3 / analyse=0x3:0x133 / me=umh / subme=9 / psy=1 / psy_rd=1.00:0.00 / mixed_ref=1 / me_range=16 / chroma_me=1 / trellis=2 / 8x8dct=1 / cqm=0 / deadzone=21,11 / fast_pskip=1 / chroma_qp_offset=-2 / threads=18 / lookahead_threads=1 / sliced_threads=0 / nr=0 / decimate=1 / interlaced=0 / bluray_compat=0 / constrained_intra=0 / bframes=3 / b_pyramid=2 / b_adapt=2 / b_bias=0 / direct=3 / weightb=1 / open_gop=0 / weightp=2 / keyint=250 / keyint_min=25 / scenecut=40 / intra_refresh=0 / rc_lookahead=60 / rc=crf / mbtree=1 / crf=18.0 / qcomp=0.60 / qpmin=0 / qpmax=69 / qpstep=4 / ip_ratio=1.40 / aq=3:0.80
Language                                 : English
Default                                  : Yes
Forced                                   : No
Color range                              : Limited
Matrix coefficients                      : BT.709

Audio
ID                                       : 2
Format                                   : DTS XLL
Format/Info                              : Digital Theater Systems
Commercial name                          : DTS-HD Master Audio
Codec ID                                 : A_DTS
Duration                                 : 1 h 25 min
Bit rate mode                            : Variable
Bit rate                                 : 1 943 kb/s
Channel(s)                               : 6 channels
Channel layout                           : C L R Ls Rs LFE
Sampling rate                            : 48.0 kHz
Frame rate                               : 93.750 FPS (512 SPF)
Bit depth                                : 16 bits
Compression mode                         : Lossless
Stream size                              : 1.16 GiB (17%)
Title                                    : dtshd
Language                                 : English
Default                                  : Yes
Forced                                   : No

Menu
00:00:00.000                             : en:00:00:00.000
00:08:50.800                             : en:00:08:50.800
00:19:18.720                             : en:00:19:18.720
00:31:54.600                             : en:00:31:54.600
00:49:05.600                             : en:00:49:05.600
01:01:52.520                             : en:01:01:52.520
01:07:28.880                             : en:01:07:28.880
01:17:52.360                             : en:01:17:52.360





d097adc9346b7c16d838be7be2f220e0.zip (34.12 KB)

回复

使用道具 举报

小黑屋|西西电影论坛 ( 闽ICP备160050789号-1 )

所有资源来自网络采集,如果侵犯了您的权益,请发邮件至 [email protected],立即清除相关链接

GMT+8, 2020-10-27 02:27 , Processed in 0.105062 second(s), 27 queries .

Powered by Discuz! X3.2

© 2001-2013 Comsenz Inc.

快速回复 返回顶部 返回列表