西西电影论坛

 找回密码
 立即注册

罗伯特玩偶的复仇 The.Revenge.Of.Robert.The.Doll.2018.1080p.BluRay.x26...

[复制链接]

电影下载 发表于 2020-10-17 11:34:53 | 显示全部楼层 |阅读模式
帖子完整标题:罗伯特玩偶的复仇 The.Revenge.Of.Robert.The.Doll.2018.1080p.BluRay.x264-GETiT 4.09GB




◎译  名 罗伯特玩偶的复仇 / The Legend of Robert the Doll
◎片  名 The Revenge of Robert the Doll
◎年  代 2018
◎产  地 英国
◎类  别 恐怖
◎语  言 英语
◎上映日期 2018-03-06(英国)
◎IMDb评分  3.0/10 from 443 users
◎片  长 80分钟
◎导  演 安德鲁·琼斯 Andrew Jones
◎编  剧 安德鲁·琼斯 Andrew Jones
◎主  演 Lee Bane
       Harriet Rees
       Judith Haley


◎标  签 恐怖 | 惊悚 | 英国 | 2018 | 犯罪 | 美国 | 这也能叫电影么…烂片战斗机 | 英国电影

◎简  介   

  在纳粹德国,玩具制造商拥有一本神秘的书籍,赋予无生命的生命。在躲过希特勒命令取回书的党卫军之后,这位玩具商登上了一列火车企图逃离该国。认为他很清楚,玩具制造商很快就发现,一批高级纳粹军官也加入进来。最终,他的秘密被揭露出来,纳粹关闭。但是,玩具制造商已经使用这个神奇的东西来带来一个名叫罗伯特的复古娃娃来生活 - 而罗伯特将毫无阻碍地保护他的主人。所以,当玩具制造商和杀手娃娃拿起纳粹时,就开始了一场血腥的战斗。这是对死亡的一场战斗,只有胜利者才会在下一站下车。
Video
ID                                       : 1
Format                                   : AVC
Format/Info                              : Advanced Video Codec
Format settings                          : CABAC / 5 Ref Frames
Format settings, CABAC                   : Yes
Format settings, Reference frames        : 5 frames
Codec ID                                 : V_MPEG4/ISO/AVC
Duration                                 : 1 h 17 min
Bit rate                                 : 5 835 kb/s
Width                                    : 1 920 pixels
Height                                   : 804 pixels
Display aspect ratio                     : 2.40:1
Frame rate mode                          : Constant
Frame rate                               : 25.000 FPS
Color space                              : YUV
Chroma subsampling                       : 4:2:0
Bit depth                                : 8 bits
Scan type                                : Progressive
Bits/(Pixel*Frame)                       : 0.151
Stream size                              : 3.15 GiB (77%)
Writing library                          : x264 core 160 r3000 33f9e14
Encoding settings                        : cabac=1 / ref=5 / deblock=1:-3:-3 / analyse=0x3:0x133 / me=umh / subme=9 / psy=1 / psy_rd=1.00:0.00 / mixed_ref=1 / me_range=16 / chroma_me=1 / trellis=2 / 8x8dct=1 / cqm=0 / deadzone=21,11 / fast_pskip=1 / chroma_qp_offset=-2 / threads=18 / lookahead_threads=1 / sliced_threads=0 / nr=0 / decimate=1 / interlaced=0 / bluray_compat=0 / constrained_intra=0 / bframes=3 / b_pyramid=2 / b_adapt=2 / b_bias=0 / direct=3 / weightb=1 / open_gop=0 / weightp=2 / keyint=250 / keyint_min=25 / scenecut=40 / intra_refresh=0 / rc_lookahead=60 / rc=crf / mbtree=1 / crf=17.0 / qcomp=0.60 / qpmin=0 / qpmax=69 / qpstep=4 / ip_ratio=1.40 / aq=3:0.80
Language                                 : English
Default                                  : Yes
Forced                                   : No
Color range                              : Limited
Matrix coefficients                      : BT.709

Audio
ID                                       : 2
Format                                   : DTS XLL
Format/Info                              : Digital Theater Systems
Commercial name                          : DTS-HD Master Audio
Codec ID                                 : A_DTS
Duration                                 : 1 h 17 min
Bit rate mode                            : Variable
Bit rate                                 : 1 747 kb/s
Channel(s)                               : 6 channels
Channel layout                           : C L R Ls Rs LFE
Sampling rate                            : 48.0 kHz
Frame rate                               : 93.750 FPS (512 SPF)
Bit depth                                : 16 bits
Compression mode                         : Lossless
Stream size                              : 965 MiB (23%)
Title                                    : dtshd
Language                                 : English
Default                                  : Yes
Forced                                   : No

Menu
00:00:00.000                             : en:00:00:00.000
00:10:59.040                             : en:00:10:59.040
00:23:32.640                             : en:00:23:32.640
00:29:22.560                             : en:00:29:22.560
00:33:57.120                             : en:00:33:57.120
00:37:00.480                             : en:00:37:00.480
00:45:36.960                             : en:00:45:36.960
01:00:10.960                             : en:01:00:10.960
01:06:16.720                             : en:01:06:16.720
01:09:10.080                             : en:01:09:10.080




                                                                                                                                                                                                        
                                                                                                                                                                                                                                          
c943043a332606ee2d3647d1a89dc318.zip (41.66 KB)

回复

使用道具 举报

小黑屋|西西电影论坛 ( 闽ICP备160050789号-1 )

所有资源来自网络采集,如果侵犯了您的权益,请发邮件至 [email protected],立即清除相关链接

GMT+8, 2020-10-25 16:47 , Processed in 0.098946 second(s), 27 queries .

Powered by Discuz! X3.2

© 2001-2013 Comsenz Inc.

快速回复 返回顶部 返回列表