西西电影论坛

 找回密码
 立即注册

[4K-原盘] 匹诺曹/木偶奇遇记 Pinocchio.2019.ITALIAN.2160p.BluRay.REMUX.HEVC.DTS-...

[复制链接]

电影下载 发表于 2020-10-18 09:39:14 | 显示全部楼层 |阅读模式
帖子完整标题:匹诺曹/木偶奇遇记 Pinocchio.2019.ITALIAN.2160p.BluRay.REMUX.HEVC.DTS-HD.MA.5.1-FGT 52.38GB




◎译  名 匹诺曹/木偶奇遇记/皮诺丘的奇幻旅程(台)
◎片  名 Pinocchio
◎年  代 2019
◎产  地 意大利,法国,英国
◎类  别 奇幻
◎语  言 意大利语
◎上映日期 2019-12-19(意大利)
◎IMDb评分  6.3/10 from 4744 users
◎片  长 124分钟
◎导  演 马提欧·加洛尼 Matteo Garrone
◎编  剧 卡洛·科洛迪 Carlo Collodi / 马提欧·加洛尼 Matteo Garrone / 马西莫·切可里尼 Massimo Ceccherini
◎主  演 费德里科·伊帕迪 Federico Ielapi
       罗伯托·贝尼尼 Roberto Benigni
       罗科·帕帕莱奥 Rocco Papaleo
       马西莫·切可里尼 Massimo Ceccherini
       玛丽恩·瓦科特 Marine Vacth
       吉吉·普罗耶蒂 Gigi Proietti
       阿利达·巴尔达里·卡拉布里亚 Alida Baldari Calabria
       Alessio Di Domenicantonio
       达维德·马洛塔 Davide Marotta
       保罗·格拉齐西 Paolo Graziosi
       马西米利亚诺·加洛 Massimiliano Gallo
       詹弗兰科·加洛 Gianfranco Gallo
       特科·切里奥 Teco Celio
       尼诺?斯卡迪纳 Nino Scardina
       毛里齐奥·隆巴迪 Maurizio Lombardi
       纪尧姆·德洛内 Guillaume Delaunay
       吉格欧·莫拉 Gigio Morra
       Ciro Petrone
       Barbara Enrichi
       马尔切洛·丰特 Marcello Fonte
       马蒂尔达·德·安杰利斯 Matilda De Angelis

◎标  签 童话 | 奇幻 | 意大利 | 温情 | 意大利电影 | 改编 | 2019 | 马提欧.加洛尼

◎简  介

  意大利真人版《匹诺曹》,故事围绕一个老木匠与他雕刻的小木偶匹诺曹展开。

◎获奖情况

  第65届意大利大卫奖 ?(2020)
  最佳影片(提名)
  最佳导演(提名) 马提欧·加洛尼
  最佳改编剧本(提名) 马提欧·加洛尼?/?马西莫·切可里尼
  最佳女配角(提名) 阿利达·巴尔达里·卡拉布里亚
  最佳男配角(提名) 罗伯托·贝尼尼
  最佳摄影(提名)
  最佳音乐(提名)
  最佳美术设计
  最佳服装设计
  最佳化妆
  最佳剪辑(提名)
  最佳音效(提名)
  最佳视觉效果
Video
ID                                       : 1
ID in the original source medium         : 4113 (0x1011)
Format                                   : HEVC
Format/Info                              : High Efficiency Video Coding
HDR format                               : SMPTE ST 2094 App 4, Version 1, HDR10+ Profile B compatible
Codec ID                                 : V_MPEGH/ISO/HEVC
Duration                                 : 2 h 5 min
Bit rate                                 : 55.2 Mb/s
Width                                    : 3 840 pixels
Height                                   : 2 160 pixels
Display aspect ratio                     : 16:9
Frame rate mode                          : Constant
Frame rate                               : 24.000 FPS
Color space                              : YUV
Chroma subsampling                       : 4:2:0 (Type 2)
Bit depth                                : 10 bits
Bits/(Pixel*Frame)                       : 0.277
Stream size                              : 48.3 GiB (92%)
Title                                    : Pinocchio.2019.ITALIAN.2160p.BluRay.REMUX.HEVC.DTS-HD.MA.5.1-FGT
Language                                 : English
Default                                  : No
Forced                                   : No
Color range                              : Limited
Color primaries                          : BT.2020
Transfer characteristics                 : PQ
Matrix coefficients                      : BT.2020 non-constant
Mastering display color primaries        : Display P3
Mastering display luminance              : min: 0.0050 cd/m2, max: 1000 cd/m2
Maximum Content Light Level              : 1000 cd/m2
Maximum Frame-Average Light Level        : 400 cd/m2
Original source medium                   : Blu-ray

Audio #1
ID                                       : 2
ID in the original source medium         : 4353 (0x1101)
Format                                   : DTS XLL
Format/Info                              : Digital Theater Systems
Commercial name                          : DTS-HD Master Audio
Codec ID                                 : A_DTS
Duration                                 : 2 h 5 min
Bit rate mode                            : Variable
Bit rate                                 : 2 330 kb/s
Channel(s)                               : 6 channels
Channel layout                           : C L R Ls Rs LFE
Sampling rate                            : 48.0 kHz
Frame rate                               : 93.750 FPS (512 SPF)
Bit depth                                : 16 bits
Compression mode                         : Lossless
Stream size                              : 2.04 GiB (4%)
Title                                    : Pinocchio.2019.ITALIAN.2160p.BluRay.REMUX.HEVC.DTS-HD.MA.5.1-FGT
Language                                 : Italian
Default                                  : Yes
Forced                                   : No
Original source medium                   : Blu-ray

Audio #2
ID                                       : 3
ID in the original source medium         : 4352 (0x1100)
Format                                   : DTS XLL
Format/Info                              : Digital Theater Systems
Commercial name                          : DTS-HD Master Audio
Codec ID                                 : A_DTS
Duration                                 : 2 h 5 min
Bit rate mode                            : Variable
Bit rate                                 : 2 330 kb/s
Channel(s)                               : 6 channels
Channel layout                           : C L R Ls Rs LFE
Sampling rate                            : 48.0 kHz
Frame rate                               : 93.750 FPS (512 SPF)
Bit depth                                : 16 bits
Compression mode                         : Lossless
Stream size                              : 2.04 GiB (4%)
Title                                    : Pinocchio.2019.ITALIAN.2160p.BluRay.REMUX.HEVC.DTS-HD.MA.5.1-FGT
Language                                 : German
Default                                  : No
Forced                                   : No
Original source medium                   : Blu-ray

Text #1
ID                                       : 4
Format                                   : UTF-8
Codec ID                                 : S_TEXT/UTF8
Codec ID/Info                            : UTF-8 Plain Text
Duration                                 : 1 h 54 min
Bit rate                                 : 49 b/s
Count of elements                        : 1298
Stream size                              : 41.7 KiB (0%)
Title                                    : English-SRT
Language                                 : English
Default                                  : Yes
Forced                                   : No

Text #2
ID                                       : 5
ID in the original source medium         : 4768 (0x12A0)
Format                                   : PGS
Muxing mode                              : zlib
Codec ID                                 : S_HDMV/PGS
Codec ID/Info                            : Picture based subtitle format used on BDs/HD-DVDs
Duration                                 : 1 h 52 min
Bit rate                                 : 34.4 kb/s
Count of elements                        : 3402
Stream size                              : 27.8 MiB (0%)
Title                                    : German-PGS
Language                                 : German
Default                                  : No
Forced                                   : No
Original source medium                   : Blu-ray

Text #3
ID                                       : 6
ID in the original source medium         : 4769 (0x12A1)
Format                                   : PGS
Muxing mode                              : zlib
Codec ID                                 : S_HDMV/PGS
Codec ID/Info                            : Picture based subtitle format used on BDs/HD-DVDs
Duration                                 : 1 h 0 min
Bit rate                                 : 76 b/s
Count of elements                        : 6
Stream size                              : 33.6 KiB (0%)
Title                                    : German-FORCED_PGS
Language                                 : German
Default                                  : No
Forced                                   : No
Original source medium                   : Blu-ray

Menu
00:00:00.000                             : en:Chapter 01
00:11:25.916                             : en:Chapter 02
00:20:42.916                             : en:Chapter 03
00:31:30.083                             : en:Chapter 04
00:40:53.250                             : en:Chapter 05
00:50:47.791                             : en:Chapter 06
00:59:33.833                             : en:Chapter 07
01:10:38.208                             : en:Chapter 08
01:19:59.875                             : en:Chapter 09
01:29:35.250                             : en:Chapter 10
01:40:35.583                             : en:Chapter 11
01:52:54.583                             : en:Chapter 12





f689a79d169221746bca599bf23b0e44.zip (131.66 KB)

回复

使用道具 举报

小黑屋|西西电影论坛 ( 闽ICP备160050789号-1 )

所有资源来自网络采集,如果侵犯了您的权益,请发邮件至 [email protected],立即清除相关链接

GMT+8, 2020-10-31 09:03 , Processed in 0.112906 second(s), 27 queries .

Powered by Discuz! X3.2

© 2001-2013 Comsenz Inc.

快速回复 返回顶部 返回列表