西西电影论坛

 找回密码
 立即注册

魂飞胆破 2 Camp.Blood.2.2000.3D.720p.BluRay.x264-PussyFoot 2.20GB

[复制链接]

电影下载 发表于 2020-10-25 10:50:01 | 显示全部楼层 |阅读模式
帖子完整标题:魂飞胆破 2 Camp.Blood.2.2000.3D.720p.BluRay.x264-PussyFoot 2.20GB




◎译  名 魂飞胆破 2
◎片  名 Camp Blood 2
◎年  代 2000
◎产  地 美国
◎类  别 恐怖
◎语  言 英语
◎上映日期 2000
◎IMDb评分  3/10 from 583 users
◎片  长 90 分钟
◎导  演 Brad Sykes
◎编  剧 Brad Sykes
◎主  演 Brad Jacques
       Mark Polonia
       Garrett Clancy
       Mark Overholt
       Tim Sullivan
       Danny Rayfield

◎标  签 血腥 | 美国电影 | 恐怖 | 小丑恐惧症

◎简  介

  暂无相关剧情介绍
Video
ID                                       : 1
Format                                   : AVC
Format/Info                              : Advanced Video Codec
Format settings                          : CABAC / 8 Ref Frames
Format settings, CABAC                   : Yes
Format settings, Reference frames        : 8 frames
Codec ID                                 : V_MPEG4/ISO/AVC
Duration                                 : 1 h 14 min
Bit rate                                 : 3 952 kb/s
Width                                    : 960 pixels
Height                                   : 720 pixels
Display aspect ratio                     : 4:3
Frame rate mode                          : Constant
Frame rate                               : 59.940 FPS
Color space                              : YUV
Chroma subsampling                       : 4:2:0
Bit depth                                : 8 bits
Scan type                                : Progressive
Bits/(Pixel*Frame)                       : 0.095
Stream size                              : 2.05 GiB (93%)
Writing library                          : x264 core 161 r3018 db0d417
Encoding settings                        : cabac=1 / ref=8 / deblock=1:0:0 / analyse=0x3:0x133 / me=umh / subme=9 / psy=1 / psy_rd=1.00:0.15 / mixed_ref=1 / me_range=16 / chroma_me=1 / trellis=2 / 8x8dct=1 / cqm=0 / deadzone=21,11 / fast_pskip=0 / chroma_qp_offset=-3 / threads=22 / lookahead_threads=1 / sliced_threads=0 / nr=0 / decimate=1 / interlaced=0 / bluray_compat=0 / constrained_intra=0 / bframes=3 / b_pyramid=2 / b_adapt=2 / b_bias=0 / direct=3 / weightb=1 / open_gop=0 / weightp=2 / keyint=250 / keyint_min=25 / scenecut=40 / intra_refresh=0 / rc_lookahead=60 / rc=crf / mbtree=1 / crf=19.0 / qcomp=0.60 / qpmin=0 / qpmax=69 / qpstep=4 / ip_ratio=1.40 / aq=1:1.00
Language                                 : English
Default                                  : Yes
Forced                                   : No

Audio
ID                                       : 2
Format                                   : AC-3
Format/Info                              : Audio Coding 3
Commercial name                          : Dolby Digital
Codec ID                                 : A_AC3
Duration                                 : 1 h 14 min
Bit rate mode                            : Constant
Bit rate                                 : 192 kb/s
Channel(s)                               : 2 channels
Channel layout                           : L R
Sampling rate                            : 48.0 kHz
Frame rate                               : 31.250 FPS (1536 SPF)
Compression mode                         : Lossy
Stream size                              : 102 MiB (5%)
Language                                 : English
Service kind                             : Complete Main
Default                                  : Yes
Forced                                   : No

Menu
00:00:00.000                             : en:00:00:00.000
00:09:59.999                             : en:00:09:59.999
00:19:59.999                             : en:00:19:59.999
00:29:59.998                             : en:00:29:59.998
00:39:59.998                             : en:00:39:59.998
00:49:59.997                             : en:00:49:59.997
00:59:59.996                             : en:00:59:59.996
01:09:59.996                             : en:01:09:59.996




                                                                                                                                                                                                        
                                                                                                                                                                                                                                          
55db586fe65b669da7924df6b930d1d7.zip (23.45 KB)

回复

使用道具 举报

小黑屋|西西电影论坛 ( 闽ICP备160050789号-1 )

所有资源来自网络采集,如果侵犯了您的权益,请发邮件至 [email protected],立即清除相关链接

GMT+8, 2020-11-26 20:06 , Processed in 0.115657 second(s), 27 queries .

Powered by Discuz! X3.2

© 2001-2013 Comsenz Inc.

快速回复 返回顶部 返回列表