西西电影论坛

 找回密码
 立即注册

[BD-4K] 触礁/岩石上 On.The.Rocks.2020.HDR.2160p.WEB.h265-KOGi 16.99GB

[复制链接]

电影下载 发表于 2021-1-1 10:48:01 | 显示全部楼层 |阅读模式
-->
帖子完整标题:触礁/岩石上 On.The.Rocks.2020.HDR.2160p.WEB.h265-KOGi 16.99GB




◎译  名 触礁/岩石上
◎片  名 On the Rocks
◎年  代 2020
◎产  地 美国
◎类  别 剧情 / 喜剧 / 冒险
◎语  言 英语
◎上映日期 2020-09-22(纽约电影节) / 2020-10-23(美国)
◎IMDb评分  6.5/10 from 17676 users
◎  
◎豆瓣评分 6.5/10 from 2064 users
◎ 
◎片  长 97分钟
◎导  演 索菲亚·科波拉 Sofia Coppola
◎编  剧 索菲亚·科波拉 Sofia Coppola
◎主  演 比尔·默瑞 Bill Murray
       拉什达·琼斯 Rashida Jones
       马龙·韦恩斯 Marlon Wayans
       珍妮·斯蕾特 Jenny Slate
       杰西卡·亨维克 Jessica Henwick
       芭芭拉·贝恩 Barbara Bain
       纳迪雅·达珍妮 Nadia Dajani
       朱尔斯·威尔科克斯 Jules Willcox
       娜缇娅·蒂恩 Natia Dune
       桃乐丝·麦卡锡 Doris McCarthy
       南希·欧泽力 Nancy Ozelli
       Mike Keller

◎标  签 美国 | 索菲亚·科波拉 | 2020 | 喜剧 | 剧情 | BillMurray | SofiaCoppola | 美国电影

◎简  介

  索菲亚·科波拉将执导新片《触礁》(On the Rocks),比尔·莫瑞、拉什达·琼斯主演,这将是苹果和A24合作的第一部电影,下月开拍。
  
  剧本由科波拉编写,讲述一个年轻妈妈和她有英雄色彩的父亲重新联系,在纽约展开一段冒险。

◎获奖情况

  第33届芝加哥影评人协会奖 ?(2020)
  最佳男配角(提名) 比尔·默瑞
[quote]Video
ID                                       : 1
Format                                   : HEVC
Format/Info                              : High Efficiency Video Coding
Format profile                           : Main @High
HDR format                               : SMPTE ST 2086, HDR10 compatible
Codec ID                                 : V_MPEGH/ISO/HEVC
Duration                                 : 1 h 36 min
Bit rate                                 : 24.1 Mb/s
Width                                    : 3 840 pixels
Height                                   : 2 076 pixels
Display aspect ratio                     : 1.85:1
Frame rate mode                          : Constant
Frame rate                               : 23.976 (24000/1001/189150) FPS
Color space                              : YUV
Chroma subsampling                       : 4:2:0 (Type 2)
Bit depth                                : 10 bits
Bits/(Pixel*Frame)                       : 0.126
Stream size                              : 16.3 GiB (97%)
Language                                 : English
Default                                  : Yes
Forced                                   : No
Color range                              : Limited
Color primaries                          : BT.2020
Transfer characteristics                 : PQ
Matrix coefficients                      : BT.2020 non-constant
Mastering display color primaries        : Display P3
Mastering display luminance              : min: 0.0050 cd/m2, max: 1000 cd/m2
Maximum Content Light Level              : 2022 cd/m2
Maximum Frame-Average Light Level        : 75 cd/m2

Audio
ID                                       : 2
Format                                   : E-AC-3 JOC
Format/Info                              : Enhanced AC-3 with Joint Object Coding
Commercial name                          : Dolby Digital Plus with Dolby Atmos
Codec ID                                 : A_EAC3
Duration                                 : 1 h 36 min
Bit rate mode                            : Constant
Bit rate                                 : 768 kb/s
Channel(s)                               : 6 channels
Channel layout                           : L R C LFE Ls Rs
Sampling rate                            : 48.0 kHz
Frame rate                               : 31.250 FPS (1536 SPF)
Compression mode                         : Lossy
Stream size                              : 532 MiB (3%)
Language                                 : English
Service kind                             : Complete Main
Default                                  : Yes
Forced                                   : No
Complexity index                         : 16
Number of dynamic objects                : 15
Bed channel count                        : 1 channel
Bed channel configuration                : LFE

Text #1
ID                                       : 3
Format                                   : UTF-8
Codec ID                                 : S_TEXT/UTF8
Codec ID/Info                            : UTF-8 Plain Text
Duration                                 : 1 h 29 min
Bit rate                                 : 66 b/s
Count of elements                        : 1401
Stream size                              : 43.6 KiB (0%)
Title                                    : English
Language                                 : English
Default                                  : No
Forced                                   : No

Text #2
ID                                       : 4
Format                                   : UTF-8
Codec ID                                 : S_TEXT/UTF8
Codec ID/Info                            : UTF-8 Plain Text
Duration                                 : 1 h 29 min
Bit rate                                 : 74 b/s
Count of elements                        : 1526
Stream size                              : 49.0 KiB (0%)
Title                                    : English (SDH)
Language                                 : English
Default                                  : No
Forced                                   : No

Text #3
ID                                       : 5
Format                                   : UTF-8
Codec ID                                 : S_TEXT/UTF8
Codec ID/Info                            : UTF-8 Plain Text
Duration                                 : 1 h 36 min
Bit rate                                 : 88 b/s
Count of elements                        : 1416
Stream size                              : 62.2 KiB (0%)
Title                                    : ???????
Language                                 : Arabic
Default                                  : No
Forced                                   : No

Text #4
ID                                       : 6
Format                                   : UTF-8
Codec ID                                 : S_TEXT/UTF8
Codec ID/Info                            : UTF-8 Plain Text
Duration                                 : 1 h 36 min
Bit rate                                 : 90 b/s
Count of elements                        : 1294
Stream size                              : 64.0 KiB (0%)
Title                                    : български
Language                                 : Bulgarian
Default                                  : No
Forced                                   : No

Text #5
ID                                       : 7
Format                                   : UTF-8
Codec ID                                 : S_TEXT/UTF8
Codec ID/Info                            : UTF-8 Plain Text
Duration                                 : 1 h 36 min
Bit rate                                 : 55 b/s
Count of elements                        : 1404
Stream size                              : 39.2 KiB (0%)
Title                                    : ?e?tina
Language                                 : Czech
Default                                  : No
Forced                                   : No

Text #6
ID                                       : 8
Format                                   : UTF-8
Codec ID                                 : S_TEXT/UTF8
Codec ID/Info                            : UTF-8 Plain Text
Duration                                 : 1 h 36 min
Bit rate                                 : 59 b/s
Count of elements                        : 1335
Stream size                              : 41.6 KiB (0%)
Title                                    : dansk
Language                                 : Danish
Default                                  : No
Forced                                   : No

Text #7
ID                                       : 9
Format                                   : UTF-8
Codec ID                                 : S_TEXT/UTF8
Codec ID/Info                            : UTF-8 Plain Text
Duration                                 : 1 h 36 min
Bit rate                                 : 64 b/s
Count of elements                        : 1264
Stream size                              : 45.7 KiB (0%)
Title                                    : Deutsch
Language                                 : German
Default                                  : No
Forced                                   : No

Text #8
ID                                       : 10
Format                                   : UTF-8
Codec ID                                 : S_TEXT/UTF8
Codec ID/Info                            : UTF-8 Plain Text
Duration                                 : 1 h 36 min
Bit rate                                 : 95 b/s
Count of elements                        : 1407
Stream size                              : 67.2 KiB (0%)
Title                                    : Ελληνικ?
Language                                 : Greek
Default                                  : No
Forced                                   : No

Text #9
ID                                       : 11
Format                                   : UTF-8
Codec ID                                 : S_TEXT/UTF8
Codec ID/Info                            : UTF-8 Plain Text
Duration                                 : 1 h 36 min
Bit rate                                 : 60 b/s
Count of elements                        : 1394
Stream size                              : 42.8 KiB (0%)
Title                                    : Espa?ol (Espa?a)
Language                                 : Spanish
Default                                  : No
Forced                                   : No

Text #10
ID                                       : 12
Format                                   : UTF-8
Codec ID                                 : S_TEXT/UTF8
Codec ID/Info                            : UTF-8 Plain Text
Duration                                 : 1 h 36 min
Bit rate                                 : 61 b/s
Count of elements                        : 1411
Stream size                              : 43.3 KiB (0%)
Title                                    : Espa?ol (Latinoamérica)
Language                                 : Spanish
Default                                  : No
Forced                                   : No

Text #11
ID                                       : 13
Format                                   : UTF-8
Codec ID                                 : S_TEXT/UTF8
Codec ID/Info                            : UTF-8 Plain Text
Duration                                 : 1 h 36 min
Bit rate                                 : 57 b/s
Count of elements                        : 1269
Stream size                              : 40.8 KiB (0%)
Title                                    : eesti
Language                                 : Estonian
Default                                  : No
Forced                                   : No

Text #12
ID                                       : 14
Format                                   : UTF-8
Codec ID                                 : S_TEXT/UTF8
Codec ID/Info                            : UTF-8 Plain Text
Duration                                 : 1 h 36 min
Bit rate                                 : 56 b/s
Count of elements                        : 1404
Stream size                              : 39.7 KiB (0%)
Title                                    : Suomi
Language                                 : Finnish
Default                                  : No
Forced                                   : No

Text #13
ID                                       : 15
Format                                   : UTF-8
Codec ID                                 : S_TEXT/UTF8
Codec ID/Info                            : UTF-8 Plain Text
Duration                                 : 1 h 36 min
Bit rate                                 : 51 b/s
Count of elements                        : 1357
Stream size                              : 36.3 KiB (0%)
Title                                    : Fran?ais (Canada)
Language                                 : French
Default                                  : No
Forced                                   : No

Text #14
ID                                       : 16
Format                                   : UTF-8
Codec ID                                 : S_TEXT/UTF8
Codec ID/Info                            : UTF-8 Plain Text
Duration                                 : 1 h 36 min
Bit rate                                 : 51 b/s
Count of elements                        : 1356
Stream size                              : 36.2 KiB (0%)
Title                                    : Fran?ais (France)
Language                                 : French
Default                                  : No
Forced                                   : No

Text #15
ID                                       : 17
Format                                   : UTF-8
Codec ID                                 : S_TEXT/UTF8
Codec ID/Info                            : UTF-8 Plain Text
Duration                                 : 1 h 36 min
Bit rate                                 : 84 b/s
Count of elements                        : 1415
Stream size                              : 59.6 KiB (0%)
Title                                    : ?????
Language                                 : Hebrew
Default                                  : No
Forced                                   : No

Text #16
ID                                       : 18
Format                                   : UTF-8
Codec ID                                 : S_TEXT/UTF8
Codec ID/Info                            : UTF-8 Plain Text
Duration                                 : 1 h 36 min
Bit rate                                 : 145 b/s
Count of elements                        : 1416
Stream size                              : 103 KiB (0%)
Title                                    : ??????
Language                                 : Hindi
Default                                  : No
Forced                                   : No

Text #17
ID                                       : 19
Format                                   : UTF-8
Codec ID                                 : S_TEXT/UTF8
Codec ID/Info                            : UTF-8 Plain Text
Duration                                 : 1 h 36 min
Bit rate                                 : 58 b/s
Count of elements                        : 1412
Stream size                              : 41.1 KiB (0%)
Title                                    : magyar
Language                                 : Hungarian
Default                                  : No
Forced                                   : No

Text #18
ID                                       : 20
Format                                   : UTF-8
Codec ID                                 : S_TEXT/UTF8
Codec ID/Info                            : UTF-8 Plain Text
Duration                                 : 1 h 36 min
Bit rate                                 : 57 b/s
Count of elements                        : 1410
Stream size                              : 40.3 KiB (0%)
Title                                    : Bahasa Indonesia
Language                                 : Indonesian
Default                                  : No
Forced                                   : No

Text #19
ID                                       : 21
Format                                   : UTF-8
Codec ID                                 : S_TEXT/UTF8
Codec ID/Info                            : UTF-8 Plain Text
Duration                                 : 1 h 36 min
Bit rate                                 : 64 b/s
Count of elements                        : 1327
Stream size                              : 45.5 KiB (0%)
Title                                    : Italiano
Language                                 : Italian
Default                                  : No
Forced                                   : No

Text #20
ID                                       : 22
Format                                   : UTF-8
Codec ID                                 : S_TEXT/UTF8
Codec ID/Info                            : UTF-8 Plain Text
Duration                                 : 1 h 36 min
Bit rate                                 : 52 b/s
Count of elements                        : 1348
Stream size                              : 37.1 KiB (0%)
Title                                    : 日本語
Language                                 : Japanese
Default                                  : No
Forced                                   : No

Text #21
ID                                       : 23
Format                                   : UTF-8
Codec ID                                 : S_TEXT/UTF8
Codec ID/Info                            : UTF-8 Plain Text
Duration                                 : 1 h 36 min
Bit rate                                 : 63 b/s
Count of elements                        : 1416
Stream size                              : 44.4 KiB (0%)
Title                                    : ???
Language                                 : Korean
Default                                  : No
Forced                                   : No

Text #22
ID                                       : 24
Format                                   : UTF-8
Codec ID                                 : S_TEXT/UTF8
Codec ID/Info                            : UTF-8 Plain Text
Duration                                 : 1 h 36 min
Bit rate                                 : 60 b/s
Count of elements                        : 1412
Stream size                              : 42.6 KiB (0%)
Title                                    : lietuvi?
Language                                 : Lithuanian
Default                                  : No
Forced                                   : No

Text #23
ID                                       : 25
Format                                   : UTF-8
Codec ID                                 : S_TEXT/UTF8
Codec ID/Info                            : UTF-8 Plain Text
Duration                                 : 1 h 36 min
Bit rate                                 : 62 b/s
Count of elements                        : 1405
Stream size                              : 44.2 KiB (0%)
Title                                    : latvie?u
Language                                 : Latvian
Default                                  : No
Forced                                   : No

Text #24
ID                                       : 26
Format                                   : UTF-8
Codec ID                                 : S_TEXT/UTF8
Codec ID/Info                            : UTF-8 Plain Text
Duration                                 : 1 h 36 min
Bit rate                                 : 64 b/s
Count of elements                        : 1410
Stream size                              : 45.2 KiB (0%)
Title                                    : Bahasa Melayu
Language                                 : Malay
Default                                  : No
Forced                                   : No

Text #25
ID                                       : 27
Format                                   : UTF-8
Codec ID                                 : S_TEXT/UTF8
Codec ID/Info                            : UTF-8 Plain Text
Duration                                 : 1 h 36 min
Bit rate                                 : 53 b/s
Count of elements                        : 1252
Stream size                              : 37.6 KiB (0%)
Title                                    : Nederlands
Language                                 : Dutch
Default                                  : No
Forced                                   : No

Text #26
ID                                       : 28
Format                                   : UTF-8
Codec ID                                 : S_TEXT/UTF8
Codec ID/Info                            : UTF-8 Plain Text
Duration                                 : 1 h 36 min
Bit rate                                 : 59 b/s
Count of elements                        : 1220
Stream size                              : 41.7 KiB (0%)
Title                                    : norsk
Language                                 : Norwegian
Default                                  : No
Forced                                   : No

Text #27
ID                                       : 29
Format                                   : UTF-8
Codec ID                                 : S_TEXT/UTF8
Codec ID/Info                            : UTF-8 Plain Text
Duration                                 : 1 h 36 min
Bit rate                                 : 56 b/s
Count of elements                        : 1410
Stream size                              : 39.6 KiB (0%)
Title                                    : polski
Language                                 : Polish
Default                                  : No
Forced                                   : No

Text #28
ID                                       : 30
Format                                   : UTF-8
Codec ID

回复

使用道具 举报

小黑屋|西西电影论坛 ( 闽ICP备160050789号-1 )

所有资源来自网络采集,如果侵犯了您的权益,请发邮件至 [email protected],立即清除相关链接

GMT+8, 2021-1-28 09:13 , Processed in 0.106437 second(s), 24 queries .

Powered by Discuz! X3.2

© 2001-2013 Comsenz Inc.

快速回复 返回顶部 返回列表