西西电影论坛

 找回密码
 立即注册

[BD-4K] 玛丽亚·凯莉的奇幻圣诞节特别节目 Mariah.Careys.Magical.Christma... ...

[复制链接]

电影下载 发表于 2021-1-1 10:48:01 | 显示全部楼层 |阅读模式
-->
帖子完整标题:玛丽亚·凯莉的奇幻圣诞节特别节目 Mariah.Careys.Magical.Christmas.Special.2020.2160p.WEB.h265-KOGi 6.50GB




◎译  名 玛丽亚·凯莉的奇幻圣诞节特别节目
◎片  名 Mariah Carey's Magical Christmas Special
◎年  代 2020
◎产  地 美国
◎类  别 音乐 / 歌舞 / 奇幻 / 冒险
◎语  言 英语
◎上映日期 2020-12-04(美国)
◎IMDb评分  5.7/10 from 1042 users
◎  
◎豆瓣评分 8.1/10 from 409 users
◎ 
◎片  长 44分钟
◎导  演 罗曼·科波拉 Roman Coppola / 哈密什·汉密尔顿 Hamish Hamilton
◎主  演 玛丽亚·凯莉 Mariah Carey
       爱莉安娜·格兰德 Ariana Grande
       詹妮弗·哈德森 Jennifer Hudson
       史努比狗狗 Snoop Dogg
       蒂凡尼·哈迪斯 Tiffany Haddish
       米莉·波比·布朗 Millie Bobby Brown
       小莱斯利·奥多姆 Leslie Odom Jr.
       比利·艾希纳 Billy Eichner
       米斯蒂·克普兰德 Misty Copeland
       海蒂·克鲁姆 Heidi Klum
       贝特·米德勒 Bette Midler
       杰梅因·杜普里 Jermaine Dupri

◎标  签 音乐 | 圣诞节 | 玛丽亚凯莉 | 2020 | 美国 | AppleTV+ | 牛姐 | 特集

◎简  介

  苹果将制作《玛丽亚·凯莉的奇幻圣诞节特别节目》(Mariah Carey’s Magical Christmas Special,暂译)。玛丽亚·凯莉与伊恩·斯图尔特、Raj Kapoor、Ashley Edens担任执行制作人,哈密什·汉密尔顿、罗曼·科波拉执导。该特别节目将由一个温暖的故事串联起音乐、舞蹈与动画,并将于今年冬季登陆Apple TV+。
[quote]Video
ID                                       : 1
Format                                   : HEVC
Format/Info                              : High Efficiency Video Coding
Format profile                           : Main @High
Codec ID                                 : V_MPEGH/ISO/HEVC
Duration                                 : 43 min 43 s
Bit rate                                 : 20.1 Mb/s
Width                                    : 3 840 pixels
Height                                   : 2 160 pixels
Display aspect ratio                     : 16:9
Frame rate mode                          : Constant
Frame rate                               : 23.976 (24000/1001/189150) FPS
Color space                              : YUV
Chroma subsampling                       : 4:2:0
Bit depth                                : 10 bits
Bits/(Pixel*Frame)                       : 0.101
Stream size                              : 6.12 GiB (96%)
Language                                 : English
Default                                  : Yes
Forced                                   : No
Color range                              : Limited
Color primaries                          : BT.709
Transfer characteristics                 : BT.709
Matrix coefficients                      : BT.709

Audio
ID                                       : 2
Format                                   : E-AC-3 JOC
Format/Info                              : Enhanced AC-3 with Joint Object Coding
Commercial name                          : Dolby Digital Plus with Dolby Atmos
Codec ID                                 : A_EAC3
Duration                                 : 43 min 43 s
Bit rate mode                            : Constant
Bit rate                                 : 768 kb/s
Channel(s)                               : 6 channels
Channel layout                           : L R C LFE Ls Rs
Sampling rate                            : 48.0 kHz
Frame rate                               : 31.250 FPS (1536 SPF)
Compression mode                         : Lossy
Stream size                              : 240 MiB (4%)
Language                                 : English
Service kind                             : Complete Main
Default                                  : Yes
Forced                                   : No
Complexity index                         : 16
Number of dynamic objects                : 15
Bed channel count                        : 1 channel
Bed channel configuration                : LFE

Text #1
ID                                       : 3
Format                                   : UTF-8
Codec ID                                 : S_TEXT/UTF8
Codec ID/Info                            : UTF-8 Plain Text
Duration                                 : 43 min 2 s
Bit rate                                 : 60 b/s
Count of elements                        : 602
Stream size                              : 19.1 KiB (0%)
Title                                    : English
Language                                 : English
Default                                  : No
Forced                                   : No

Text #2
ID                                       : 4
Format                                   : UTF-8
Codec ID                                 : S_TEXT/UTF8
Codec ID/Info                            : UTF-8 Plain Text
Duration                                 : 43 min 4 s
Bit rate                                 : 77 b/s
Count of elements                        : 662
Stream size                              : 24.4 KiB (0%)
Title                                    : English (SDH)
Language                                 : English
Default                                  : No
Forced                                   : No

Text #3
ID                                       : 5
Format                                   : UTF-8
Codec ID                                 : S_TEXT/UTF8
Codec ID/Info                            : UTF-8 Plain Text
Duration                                 : 43 min 6 s
Bit rate                                 : 87 b/s
Count of elements                        : 608
Stream size                              : 27.6 KiB (0%)
Title                                    : ???????
Language                                 : Arabic
Default                                  : No
Forced                                   : No

Text #4
ID                                       : 6
Format                                   : UTF-8
Codec ID                                 : S_TEXT/UTF8
Codec ID/Info                            : UTF-8 Plain Text
Duration                                 : 43 min 6 s
Bit rate                                 : 98 b/s
Count of elements                        : 583
Stream size                              : 31.0 KiB (0%)
Title                                    : български
Language                                 : Bulgarian
Default                                  : No
Forced                                   : No

Text #5
ID                                       : 7
Format                                   : UTF-8
Codec ID                                 : S_TEXT/UTF8
Codec ID/Info                            : UTF-8 Plain Text
Duration                                 : 43 min 34 s
Bit rate                                 : 57 b/s
Count of elements                        : 602
Stream size                              : 18.2 KiB (0%)
Title                                    : ?e?tina
Language                                 : Czech
Default                                  : No
Forced                                   : No

Text #6
ID                                       : 8
Format                                   : UTF-8
Codec ID                                 : S_TEXT/UTF8
Codec ID/Info                            : UTF-8 Plain Text
Duration                                 : 43 min 6 s
Bit rate                                 : 50 b/s
Count of elements                        : 597
Stream size                              : 15.8 KiB (0%)
Title                                    : dansk
Language                                 : Danish
Default                                  : No
Forced                                   : No

Text #7
ID                                       : 9
Format                                   : UTF-8
Codec ID                                 : S_TEXT/UTF8
Codec ID/Info                            : UTF-8 Plain Text
Duration                                 : 43 min 34 s
Bit rate                                 : 60 b/s
Count of elements                        : 610
Stream size                              : 19.3 KiB (0%)
Title                                    : Deutsch
Language                                 : German
Default                                  : No
Forced                                   : No

Text #8
ID                                       : 10
Format                                   : UTF-8
Codec ID                                 : S_TEXT/UTF8
Codec ID/Info                            : UTF-8 Plain Text
Duration                                 : 43 min 34 s
Bit rate                                 : 100 b/s
Count of elements                        : 595
Stream size                              : 32.1 KiB (0%)
Title                                    : Ελληνικ?
Language                                 : Greek
Default                                  : No
Forced                                   : No

Text #9
ID                                       : 11
Format                                   : UTF-8
Codec ID                                 : S_TEXT/UTF8
Codec ID/Info                            : UTF-8 Plain Text
Duration                                 : 43 min 34 s
Bit rate                                 : 60 b/s
Count of elements                        : 605
Stream size                              : 19.3 KiB (0%)
Title                                    : Espa?ol (Latinoamérica)
Language                                 : Spanish
Default                                  : No
Forced                                   : No

Text #10
ID                                       : 12
Format                                   : UTF-8
Codec ID                                 : S_TEXT/UTF8
Codec ID/Info                            : UTF-8 Plain Text
Duration                                 : 43 min 34 s
Bit rate                                 : 60 b/s
Count of elements                        : 590
Stream size                              : 19.4 KiB (0%)
Title                                    : Espa?ol (Espa?a)
Language                                 : Spanish
Default                                  : No
Forced                                   : No

Text #11
ID                                       : 13
Format                                   : UTF-8
Codec ID                                 : S_TEXT/UTF8
Codec ID/Info                            : UTF-8 Plain Text
Duration                                 : 43 min 6 s
Bit rate                                 : 54 b/s
Count of elements                        : 587
Stream size                              : 17.2 KiB (0%)
Title                                    : eesti
Language                                 : Estonian
Default                                  : No
Forced                                   : No

Text #12
ID                                       : 14
Format                                   : UTF-8
Codec ID                                 : S_TEXT/UTF8
Codec ID/Info                            : UTF-8 Plain Text
Duration                                 : 43 min 6 s
Bit rate                                 : 58 b/s
Count of elements                        : 596
Stream size                              : 18.4 KiB (0%)
Title                                    : Suomi
Language                                 : Finnish
Default                                  : No
Forced                                   : No

Text #13
ID                                       : 15
Format                                   : UTF-8
Codec ID                                 : S_TEXT/UTF8
Codec ID/Info                            : UTF-8 Plain Text
Duration                                 : 43 min 6 s
Bit rate                                 : 59 b/s
Count of elements                        : 611
Stream size                              : 18.8 KiB (0%)
Title                                    : Fran?ais (Canada)
Language                                 : French
Default                                  : No
Forced                                   : No

Text #14
ID                                       : 16
Format                                   : UTF-8
Codec ID                                 : S_TEXT/UTF8
Codec ID/Info                            : UTF-8 Plain Text
Duration                                 : 43 min 6 s
Bit rate                                 : 59 b/s
Count of elements                        : 611
Stream size                              : 18.8 KiB (0%)
Title                                    : Fran?ais (France)
Language                                 : French
Default                                  : No
Forced                                   : No

Text #15
ID                                       : 17
Format                                   : UTF-8
Codec ID                                 : S_TEXT/UTF8
Codec ID/Info                            : UTF-8 Plain Text
Duration                                 : 43 min 6 s
Bit rate                                 : 85 b/s
Count of elements                        : 612
Stream size                              : 26.9 KiB (0%)
Title                                    : ?????
Language                                 : Hebrew
Default                                  : No
Forced                                   : No

Text #16
ID                                       : 18
Format                                   : UTF-8
Codec ID                                 : S_TEXT/UTF8
Codec ID/Info                            : UTF-8 Plain Text
Duration                                 : 43 min 34 s
Bit rate                                 : 156 b/s
Count of elements                        : 613
Stream size                              : 49.9 KiB (0%)
Title                                    : ??????
Language                                 : Hindi
Default                                  : No
Forced                                   : No

Text #17
ID                                       : 19
Format                                   : UTF-8
Codec ID                                 : S_TEXT/UTF8
Codec ID/Info                            : UTF-8 Plain Text
Duration                                 : 43 min 34 s
Bit rate                                 : 61 b/s
Count of elements                        : 612
Stream size                              : 19.8 KiB (0%)
Title                                    : magyar
Language                                 : Hungarian
Default                                  : No
Forced                                   : No

Text #18
ID                                       : 20
Format                                   : UTF-8
Codec ID                                 : S_TEXT/UTF8
Codec ID/Info                            : UTF-8 Plain Text
Duration                                 : 43 min 6 s
Bit rate                                 : 63 b/s
Count of elements                        : 611
Stream size                              : 20.1 KiB (0%)
Title                                    : Bahasa Indonesia
Language                                 : Indonesian
Default                                  : No
Forced                                   : No

Text #19
ID                                       : 21
Format                                   : UTF-8
Codec ID                                 : S_TEXT/UTF8
Codec ID/Info                            : UTF-8 Plain Text
Duration                                 : 43 min 34 s
Bit rate                                 : 59 b/s
Count of elements                        : 608
Stream size                              : 19.1 KiB (0%)
Title                                    : Italiano
Language                                 : Italian
Default                                  : No
Forced                                   : No

Text #20
ID                                       : 22
Format                                   : UTF-8
Codec ID                                 : S_TEXT/UTF8
Codec ID/Info                            : UTF-8 Plain Text
Duration                                 : 43 min 34 s
Bit rate                                 : 54 b/s
Count of elements                        : 532
Stream size                              : 17.4 KiB (0%)
Title                                    : 日本語
Language                                 : Japanese
Default                                  : No
Forced                                   : No

Text #21
ID                                       : 23
Format                                   : UTF-8
Codec ID                                 : S_TEXT/UTF8
Codec ID/Info                            : UTF-8 Plain Text
Duration                                 : 43 min 34 s
Bit rate                                 : 74 b/s
Count of elements                        : 614
Stream size                              : 23.7 KiB (0%)
Title                                    : ???
Language                                 : Korean
Default                                  : No
Forced                                   : No

Text #22
ID                                       : 24
Format                                   : UTF-8
Codec ID                                 : S_TEXT/UTF8
Codec ID/Info                            : UTF-8 Plain Text
Duration                                 : 43 min 6 s
Bit rate                                 : 58 b/s
Count of elements                        : 591
Stream size                              : 18.4 KiB (0%)
Title                                    : lietuvi?
Language                                 : Lithuanian
Default                                  : No
Forced                                   : No

Text #23
ID                                       : 25
Format                                   : UTF-8
Codec ID                                 : S_TEXT/UTF8
Codec ID/Info                            : UTF-8 Plain Text
Duration                                 : 43 min 6 s
Bit rate                                 : 64 b/s
Count of elements                        : 612
Stream size                              : 20.3 KiB (0%)
Title                                    : latvie?u
Language                                 : Latvian
Default                                  : No
Forced                                   : No

Text #24
ID                                       : 26
Format                                   : UTF-8
Codec ID                                 : S_TEXT/UTF8
Codec ID/Info                            : UTF-8 Plain Text
Duration                                 : 43 min 6 s
Bit rate                                 : 61 b/s
Count of elements                        : 598
Stream size                              : 19.5 KiB (0%)
Title                                    : Bahasa Melayu
Language                                 : Malay
Default                                  : No
Forced                                   : No

Text #25
ID                                       : 27
Format                                   : UTF-8
Codec ID                                 : S_TEXT/UTF8
Codec ID/Info                            : UTF-8 Plain Text
Duration                                 : 43 min 6 s
Bit rate                                 : 58 b/s
Count of elements                        : 596
Stream size                              : 18.4 KiB (0%)
Title                                    : Nederlands
Language                                 : Dutch
Default                                  : No
Forced                                   : No

Text #26
ID                                       : 28
Format                                   : UTF-8
Codec ID                                 : S_TEXT/UTF8
Codec ID/Info                            : UTF-8 Plain Text
Duration                                 : 43 min 6 s
Bit rate                                 : 60 b/s
Count of elements                        : 592
Stream size                              : 19.1 KiB (0%)
Title                                    : norsk
Language                                 : Norwegian
Default                                  : No
Forced                                   : No

Text #27
ID                                       : 29
Format                                   : UTF-8
Codec ID                                 : S_TEXT/UTF8
Codec ID/Info                            : UTF-8 Plain Text
Duration                                 : 43 min 34 s
Bit rate                                 : 58 b/s
Count of elements                        : 608
Stream size                              : 18.7 KiB (0%)
Title                                    : polski
Language                                 : Polish
Default                                  : No
Forced                                   : No

Text #28
ID                                       : 30
Format                                   : UTF-8
Codec ID                                 : S_TEXT/UTF8
Codec ID/Info                            : UTF-8 Plain Text
Duration                                 : 43 min 34 s
Bit rate                                 : 57 b/s
Count of elements      &nbsp

回复

使用道具 举报

小黑屋|西西电影论坛 ( 闽ICP备160050789号-1 )

所有资源来自网络采集,如果侵犯了您的权益,请发邮件至 [email protected],立即清除相关链接

GMT+8, 2021-1-28 10:24 , Processed in 0.105773 second(s), 24 queries .

Powered by Discuz! X3.2

© 2001-2013 Comsenz Inc.

快速回复 返回顶部 返回列表