西西电影论坛

 找回密码
 立即注册

[4K-原盘] 爱与怪物 Love.and.Monsters.2020.2160p.BluRay.REMUX.HEVC.DTS-HD.MA.7.1-FGT...

[复制链接]

电影下载 发表于 2021-1-5 12:26:03 | 显示全部楼层 |阅读模式
-->
帖子完整标题:爱与怪物 Love.and.Monsters.2020.2160p.BluRay.REMUX.HEVC.DTS-HD.MA.7.1-FGT 51.12GB




◎译  名 爱与怪物/Monster Problems/怪物问题
◎片  名 Love and Monsters
◎年  代 2020
◎产  地 美国
◎类  别 冒险
◎语  言 英语
◎上映日期 2020-10-16(美国)
◎IMDb评分  7/10 from 25786 users
◎  
◎豆瓣评分 7.2/10 from 17062 users
◎ 
◎片  长 109分钟
◎导  演 迈克尔·马修斯 Michael Matthews
◎编  剧 布莱恩·达菲尔德 Brian Duffield / 马修·罗宾逊 Matthew Robinson
◎主  演 迪伦·奥布莱恩 Dylan O'Brien
       杰西卡·亨维克 Jessica Henwick
       迈克尔·鲁克 Michael Rooker
       丹尼尔·尤因 Daniel Ewing
       阿丽亚娜·格林布拉特 Ariana Greenblatt
       艾伦·霍尔曼 Ellen Hollman
       特雷·黑尔 Tre Hale
       帕卡罗·姆泽贝 Pacharo Mzembe
       西尼·普里蒂 Senie Priti
       阿玛莉·沃德 Amali Ward
       特克赫·图哈卡 Te Kohe Tuhaka
       塔斯尼姆·罗克 Tasneem Roc
       托马斯·坎贝尔 Thomas Campbell
       乔尔·皮尔斯 Joel Pierce
       梅拉妮·萨内蒂 Melanie Zanetti
       布鲁斯·斯宾斯 Bruce Spence
       米莉亚玛·史密斯 Miriama Smith
       安德鲁·布坎南 Andrew Buchanan
       坦蒂·莱特 Tandi Wright
       达米安·加维 Damien Garvey
       西罗 Hero
       道奇 Dodge
       拉里·塞达尔 Larry Cedar

◎标  签 怪物 | 冒险 | 科幻 | 奇幻 | 美国 | 2020 | 喜剧 | 爱情

◎简  介

  故事的背景设定在一个大部分人类已经死亡的末日世界中,主宰着这个世界里的生杀大权的,是那些变异了的冷血动物。仅剩的人类为了求生被迫迁入地下堡垒中,终日生活在胆战心惊里。
  
  乔伊(迪伦·奥布莱恩 Dylan O'Brien 饰)在七年前的大灾难里同女友艾米(杰西卡·亨维克 Jessica Henwick 饰)走散,如今他们身居两个不同的地堡中,靠着无线电联系。一天,无比思念艾米的乔伊决定踏出安全区,重返地上世界,独自徒步前往艾米所在的营地,一路上他遇见了无数的危险,同时也遇见了良师益友克莱德(迈克尔·鲁克 Michael Rooker 饰)和米诺(阿丽亚娜·格林布拉特 Ariana Greenblatt 饰)。性格懦弱胆小的乔伊能够活着见到艾米吗?
Video
ID                                       : 1
ID in the original source medium         : 4113 (0x1011)
Format                                   : HEVC
Format/Info                              : High Efficiency Video Coding
Format profile                           : Main @High
HDR format                               : SMPTE ST 2086, HDR10 compatible
Codec ID                                 : V_MPEGH/ISO/HEVC
Duration                                 : 1 h 48 min
Bit rate                                 : 61.5 Mb/s
Width                                    : 3 840 pixels
Height                                   : 2 160 pixels
Display aspect ratio                     : 16:9
Frame rate mode                          : Constant
Frame rate                               : 23.976 (24000/1001/189150) FPS
Color space                              : YUV
Chroma subsampling                       : 4:2:0 (Type 2)
Bit depth                                : 10 bits
Bits/(Pixel*Frame)                       : 0.309
Stream size                              : 46.7 GiB (91%)
Language                                 : English
Default                                  : No
Forced                                   : No
Color range                              : Limited
Color primaries                          : BT.2020
Transfer characteristics                 : PQ
Matrix coefficients                      : BT.2020 non-constant
Mastering display color primaries        : Display P3
Mastering display luminance              : min: 0.0050 cd/m2, max: 4000 cd/m2
Maximum Content Light Level              : 1000 cd/m2
Maximum Frame-Average Light Level        : 520 cd/m2
Original source medium                   : Blu-ray

Audio #1
ID                                       : 2
ID in the original source medium         : 4352 (0x1100)
Format                                   : DTS XLL
Format/Info                              : Digital Theater Systems
Commercial name                          : DTS-HD Master Audio
Codec ID                                 : A_DTS
Duration                                 : 1 h 48 min
Bit rate mode                            : Variable
Bit rate                                 : 4 413 kb/s
Channel(s)                               : 8 channels
Channel layout                           : C L R LFE Lb Rb Lss Rss
Sampling rate                            : 48.0 kHz
Frame rate                               : 93.750 FPS (512 SPF)
Bit depth                                : 24 bits
Compression mode                         : Lossless
Stream size                              : 3.36 GiB (7%)
Title                                    : DTS-HD MA 7.1
Language                                 : English
Default                                  : Yes
Forced                                   : No
Original source medium                   : Blu-ray

Audio #2
ID                                       : 3
Format                                   : AC-3
Format/Info                              : Audio Coding 3
Commercial name                          : Dolby Digital
Codec ID                                 : A_AC3
Duration                                 : 1 h 48 min
Bit rate mode                            : Constant
Bit rate                                 : 640 kb/s
Channel(s)                               : 6 channels
Channel layout                           : L R C LFE Ls Rs
Sampling rate                            : 48.0 kHz
Frame rate                               : 31.250 FPS (1536 SPF)
Compression mode                         : Lossy
Stream size                              : 498 MiB (1%)
Title                                    : DD 5.1
Language                                 : English
Service kind                             : Complete Main
Default                                  : No
Forced                                   : No

Audio #3
ID                                       : 4
ID in the original source medium         : 4353 (0x1101)
Format                                   : AC-3
Format/Info                              : Audio Coding 3
Commercial name                          : Dolby Digital
Codec ID                                 : A_AC3
Duration                                 : 1 h 48 min
Bit rate mode                            : Constant
Bit rate                                 : 640 kb/s
Channel(s)                               : 6 channels
Channel layout                           : L R C LFE Ls Rs
Sampling rate                            : 48.0 kHz
Frame rate                               : 31.250 FPS (1536 SPF)
Compression mode                         : Lossy
Stream size                              : 498 MiB (1%)
Title                                    : DD 5.1
Language                                 : English
Service kind                             : Complete Main
Default                                  : No
Forced                                   : No
Original source medium                   : Blu-ray

Text #1
ID                                       : 5
Format                                   : UTF-8
Codec ID                                 : S_TEXT/UTF8
Codec ID/Info                            : UTF-8 Plain Text
Duration                                 : 1 h 41 min
Bit rate                                 : 60 b/s
Count of elements                        : 1402
Stream size                              : 45.2 KiB (0%)
Title                                    : English-SRT
Language                                 : English
Default                                  : Yes
Forced                                   : No

Text #2
ID                                       : 6
ID in the original source medium         : 4768 (0x12A0)
Format                                   : PGS
Muxing mode                              : zlib
Codec ID                                 : S_HDMV/PGS
Codec ID/Info                            : Picture based subtitle format used on BDs/HD-DVDs
Duration                                 : 1 h 41 min
Bit rate                                 : 41.7 kb/s
Count of elements                        : 2812
Stream size                              : 30.3 MiB (0%)
Title                                    : English-PGS
Language                                 : English
Default                                  : No
Forced                                   : No
Original source medium                   : Blu-ray

Text #3
ID                                       : 7
ID in the original source medium         : 4769 (0x12A1)
Format                                   : PGS
Muxing mode                              : zlib
Codec ID                                 : S_HDMV/PGS
Codec ID/Info                            : Picture based subtitle format used on BDs/HD-DVDs
Duration                                 : 1 h 42 min
Bit rate                                 : 49.9 kb/s
Count of elements                        : 3374
Stream size                              : 36.8 MiB (0%)
Title                                    : English-SDH-PGS
Language                                 : English
Default                                  : No
Forced                                   : No
Original source medium                   : Blu-ray

Text #4
ID                                       : 8
ID in the original source medium         : 4770 (0x12A2)
Format                                   : PGS
Muxing mode                              : zlib
Codec ID                                 : S_HDMV/PGS
Codec ID/Info                            : Picture based subtitle format used on BDs/HD-DVDs
Duration                                 : 1 h 47 min
Bit rate                                 : 38.5 kb/s
Count of elements                        : 2830
Stream size                              : 29.7 MiB (0%)
Title                                    : Spanish-PGS
Language                                 : Spanish
Default                                  : No
Forced                                   : No
Original source medium                   : Blu-ray

Menu
00:00:00.000                             : en:Chapter 01
00:10:19.368                             : en:Chapter 02
00:20:14.129                             : en:Chapter 03
00:28:48.643                             : en:Chapter 04
00:34:54.675                             : en:Chapter 05
00:41:15.264                             : en:Chapter 06
00:50:20.976                             : en:Chapter 07
00:54:56.293                             : en:Chapter 08
01:04:05.633                             : en:Chapter 09
01:13:02.669                             : en:Chapter 10
01:20:52.264                             : en:Chapter 11
01:27:57.021                             : en:Chapter 12
01:36:45.466                             : en:Chapter 13
01:42:38.944                             : en:Chapter 14




                                                                                                                                                                                                        
                                                                                                                                                                                                                                                                                                                                                                                                                                                                                                                                                                                                                                                                                                                                                                                                                                                        
1c7dc5bdfdd526f95c3993601baec122.zip (128.52 KB)

回复

使用道具 举报

小黑屋|西西电影论坛 ( 闽ICP备160050789号-1 )

所有资源来自网络采集,如果侵犯了您的权益,请发邮件至 [email protected],立即清除相关链接

GMT+8, 2021-1-23 14:44 , Processed in 0.113009 second(s), 27 queries .

Powered by Discuz! X3.2

© 2001-2013 Comsenz Inc.

快速回复 返回顶部 返回列表