西西电影论坛

 找回密码
 立即注册

小岛上的决斗 Le.Combat.Dans.l.Ile.1962.720p.BluRay.x264-BiPOLAR 6.44GB

[复制链接]

电影下载 发表于 2021-1-9 19:26:25 | 显示全部楼层 |阅读模式
-->
帖子完整标题:小岛上的决斗 Le.Combat.Dans.l.Ile.1962.720p.BluRay.x264-BiPOLAR 6.44GB




◎译  名 小岛上的决斗/Fire and Ice/岛上的战斗
◎片  名 Le Combat dans l'?le
◎年  代 1962
◎产  地 法国
◎类  别 剧情
◎语  言 法语
◎上映日期 1962-09-07(法国)
◎IMDb评分  6.6/10 from 586 users
◎  
◎豆瓣评分 6.6/10 from 58 users
◎ 
◎片  长 104分钟
◎导  演 阿兰·卡瓦利埃 Alain Cavalier
◎编  剧 阿兰·卡瓦利埃 Alain Cavalier / 让-保罗·拉佩诺 Jean-Paul Rappeneau
◎主  演 罗密·施奈德 Romy Schneider
       让-路易·特兰蒂尼昂 Jean-Louis Trintignant
       亨利·赛尔 Henri Serre
       让-皮埃尔·梅尔维尔 Jean-Pierre Melville
       Clara Tambour
       让·托帕尔 Jean Topart
       戴安莱夫里耶 Diane Lepvrier
       莫里斯·加瑞尔 Maurice Garrel
       马塞尔·屈弗利耶 Marcel Cuvelier
       Jacques Berlioz
       Pierre Asso

◎标  签 法国 | 黑白 | 1960s | Romy_Schneider | Alain_Cavalier | 剧情 | 阿兰·卡瓦利埃 | 法国电影

◎简  介

  在冬天刚过的巴黎,安娜认识了丈夫克雷蒙的朋友萨罗。对于萨罗这个朋友,安娜总是忧心忡忡,觉得他不像善类。克雷蒙脾气急躁,不久后更与当老板的父亲决裂,并从自家的工厂辞职。糟糕的家庭经济状况使安娜总是愁容满面,为了让妻子高兴,克雷蒙决定带她去夜总会玩乐一番。不巧正好碰到安娜的旧情人马瑞,二人暧昧的举动不禁让克雷蒙醋意大发。
  
  而为了此事,安娜也决心离开丈夫。深爱着妻子的克雷蒙十分伤心,整日借酒消愁,直到有一天萨罗给他打电话。原来,克雷蒙参加了一个激进派组织。该组织有十二个成员,萨罗被推举为首领和组织者。每个月两次他们聚在一起进行训练,用狩猎组织的名义掩盖所从事的恐怖行动。他们白天训练,晚上讲授理论。萨罗提出西方资本主义正在腐烂,要用武力建立新的政权。
  
  这一次暗杀的目标是市议员泰拉斯,而行刺者正是克雷蒙。这是克雷蒙第一次搞暗杀行动,虽然十分紧张,但还是成功了。但在行刺之后通缉克雷蒙的新闻很快就传满了大街小巷,“已死”的泰拉斯更是接受采访谈自己如何在神秘人的帮助下逃离厄运。克雷蒙立刻明白了一切。他被人出卖了,而这个出卖他的人正是萨罗。出于无奈,克雷蒙只好和妻子安娜逃到乡下他的朋友保罗家。
  
  但克雷蒙无法熄灭心中的怒火,不久之后决定去报仇,丢下了伤心的安娜。保罗悉心照料她,并帮她开始了新的生活,两人相爱了。克雷蒙不远万里紧追萨罗,终于以自己认为正确的方式杀死了仇敌,但克雷蒙也成了臭名昭著的杀人犯。克雷蒙重返巴黎,回来后却发现安娜怀了保罗的孩子,他大为恼火,约保罗到河心小岛决斗。保罗百般忍让,终于被迫开枪打死了可雷蒙。
Video
ID                                       : 1
Format                                   : AVC
Format/Info                              : Advanced Video Codec
Format profile                           :
Format settings                          : CABAC / 9 Ref Frames
Format settings, CABAC                   : Yes
Format settings, Reference frames        : 9 frames
Codec ID                                 : V_MPEG4/ISO/AVC
Duration                                 : 1 h 44 min
Bit rate                                 : 8 617 kb/s
Width                                    : 1 194 pixels
Height                                   : 720 pixels
Display aspect ratio                     : 5:3
Frame rate mode                          : Constant
Frame rate                               : 24.000 FPS
Color space                              : YUV
Chroma subsampling                       : 4:2:0
Bit depth                                : 8 bits
Scan type                                : Progressive
Bits/(Pixel*Frame)                       : 0.418
Stream size                              : 6.27 GiB (97%)
Writing library                          : x264 core 161 r3027 4121277
Encoding settings                        : cabac=1 / ref=9 / deblock=1:-3:-3 / analyse=0x3:0x133 / me=umh / subme=10 / psy=1 / psy_rd=1.00:0.15 / mixed_ref=1 / me_range=24 / chroma_me=1 / trellis=2 / 8x8dct=1 / cqm=0 / deadzone=21,11 / fast_pskip=1 / chroma_qp_offset=-3 / threads=18 / lookahead_threads=3 / sliced_threads=0 / nr=0 / decimate=1 / interlaced=0 / bluray_compat=0 / constrained_intra=0 / bframes=8 / b_pyramid=2 / b_adapt=2 / b_bias=0 / direct=3 / weightb=1 / open_gop=0 / weightp=2 / keyint=250 / keyint_min=24 / scenecut=40 / intra_refresh=0 / rc_lookahead=60 / rc=crf / mbtree=1 / crf=17.0 / qcomp=0.60 / qpmin=0 / qpmax=69 / qpstep=4 / ip_ratio=1.40 / aq=3:0.50
Language                                 : English
Default                                  : Yes
Forced                                   : No
Color range                              : Limited
Matrix coefficients                      : BT.709

Audio
ID                                       : 2
Format                                   : FLAC
Format/Info                              : Free Lossless Audio Codec
Codec ID                                 : A_FLAC
Duration                                 : 1 h 44 min
Bit rate mode                            : Variable
Bit rate                                 : 215 kb/s
Channel(s)                               : 2 channels
Channel layout                           : L R
Sampling rate                            : 48.0 kHz
Frame rate                               : 11.719 FPS (4096 SPF)
Bit depth                                : 16 bits
Compression mode                         : Lossless
Stream size                              : 161 MiB (2%)
Writing library                          : libFLAC 1.2.1 (UTC 2007-09-17)
Language                                 : French
Default                                  : Yes
Forced                                   : No

Text #1
ID                                       : 3
Format                                   : UTF-8
Codec ID                                 : S_TEXT/UTF8
Codec ID/Info                            : UTF-8 Plain Text
Duration                                 : 1 h 34 min
Bit rate                                 : 44 b/s
Count of elements                        : 966
Stream size                              : 30.8 KiB (0%)
Title                                    : English
Language                                 : English
Default                                  : Yes
Forced                                   : Yes

Text #2
ID                                       : 4
Format                                   : UTF-8
Codec ID                                 : S_TEXT/UTF8
Codec ID/Info                            : UTF-8 Plain Text
Duration                                 : 1 h 44 min
Bit rate                                 : 47 b/s
Count of elements                        : 1174
Stream size                              : 35.9 KiB (0%)
Title                                    : French SDH
Language                                 : French
Default                                  : No
Forced                                   : No

Text #3
ID                                       : 5
Format                                   : PGS
Muxing mode                              : zlib
Codec ID                                 : S_HDMV/PGS
Codec ID/Info                            : Picture based subtitle format used on BDs/HD-DVDs
Duration                                 : 1 h 44 min
Bit rate                                 : 8 787 b/s
Count of elements                        : 2348
Stream size                              : 6.54 MiB (0%)
Title                                    : French SDH
Language                                 : French
Default                                  : No
Forced                                   : No

Menu
00:00:00.000                             : en:00:00:00.000
00:08:53.958                             : en:00:08:53.958
00:16:20.667                             : en:00:16:20.667
00:25:08.875                             : en:00:25:08.875
00:34:13.333                             : en:00:34:13.333
00:42:53.292                             : en:00:42:53.292
00:51:29.417                             : en:00:51:29.417
01:02:14.208                             : en:01:02:14.208
01:08:56.042                             : en:01:08:56.042
01:17:28.542                             : en:01:17:28.542
01:25:27.833                             : en:01:25:27.833
01:34:12.125                             : en:01:34:12.125




                                                                                                                                                                                                        
                                                                                                                                                                                                                                                                                                                                                                                                                                                                                                                                                                                                                                                                                                                                                                                                                                                        
e5b3c13e3d1dd7a74459360f8296e2bb.zip (32.9 KB)

回复

使用道具 举报

小黑屋|西西电影论坛 ( 闽ICP备160050789号-1 )

所有资源来自网络采集,如果侵犯了您的权益,请发邮件至 [email protected],立即清除相关链接

GMT+8, 2021-1-23 08:58 , Processed in 0.107338 second(s), 27 queries .

Powered by Discuz! X3.2

© 2001-2013 Comsenz Inc.

快速回复 返回顶部 返回列表