西西电影论坛

 找回密码
 立即注册

波尔图恋人 ~时间的记忆 Lovers.on.Borders.2018.720p.BluRay.x264-BiPO...

[复制链接]

电影下载 发表于 2021-1-9 19:26:25 | 显示全部楼层 |阅读模式
-->
帖子完整标题:波尔图恋人 ~时间的记忆 Lovers.on.Borders.2018.720p.BluRay.x264-BiPOLAR 3.67GB




◎译  名 波尔图恋人 ~时间的记忆/Amantes na Fronteira/Lovers on Borders
◎片  名 ポルトの恋人たち ~時の記憶
◎年  代 2018
◎产  地 日本,葡萄牙
◎类  别 剧情 / 爱情
◎语  言 日语,英语,葡萄牙语
◎上映日期 2018-11-10(日本)
◎IMDb评分  5.2/10 from 10 users
◎  
◎豆瓣评分 /10 from 0 users
◎ 
◎片  长 138分钟
◎导  演 舩桥淳 Atsushi Funahashi
◎编  剧 舩桥淳 Atsushi Funahashi / 村越繁 Shigeru Murakoshi
◎主  演 中野裕太 Yuta Nakano
       安娜·莫雷拉 Ana Moreira
       柄本佑 Tasuku Emoto
       米格尔·蒙蒂罗 Miguel Monteiro

◎标  签 爱情 | 葡萄牙 | 日本电影 | 柄本佑 | 日本 | 预告片 | 葡萄牙电影 | 岩井俊二

◎简  介

  这部日本葡萄牙合拍片讲述了两个不可思议的爱情故事。18世纪里斯本大地震后的葡萄牙,参与重建的奴隶宗次与在豪宅内工作的马里安娜相恋,但遭到雇主反对,被枪杀。21世纪东京奥运会后的日本,日裔巴西人幸四郎被裁员后自杀,留下了葡萄牙人妻子马丽娜。两位遗孀的复仇策略都是引诱凶手爱上自己,当凶手陷入热恋时,在其面前自杀,剥夺他的爱情。
Video
ID                                       : 1
Format                                   : AVC
Format/Info                              : Advanced Video Codec
Format profile                           :
Format settings                          : CABAC / 12 Ref Frames
Format settings, CABAC                   : Yes
Format settings, Reference frames        : 12 frames
Codec ID                                 : V_MPEG4/ISO/AVC
Duration                                 : 2 h 18 min
Bit rate                                 : 3 126 kb/s
Width                                    : 1 280 pixels
Height                                   : 536 pixels
Display aspect ratio                     : 2.40:1
Frame rate mode                          : Constant
Frame rate                               : 23.976 (24000/1001/189150) FPS
Color space                              : YUV
Chroma subsampling                       : 4:2:0
Bit depth                                : 8 bits
Scan type                                : Progressive
Bits/(Pixel*Frame)                       : 0.190
Stream size                              : 3.01 GiB (82%)
Writing library                          : x264 core 161 r3027 4121277
Encoding settings                        : cabac=1 / ref=12 / deblock=1:-3:-3 / analyse=0x3:0x133 / me=umh / subme=10 / psy=1 / psy_rd=1.00:0.15 / mixed_ref=1 / me_range=24 / chroma_me=1 / trellis=2 / 8x8dct=1 / cqm=0 / deadzone=21,11 / fast_pskip=1 / chroma_qp_offset=-3 / threads=17 / lookahead_threads=2 / sliced_threads=0 / nr=0 / decimate=1 / interlaced=0 / bluray_compat=0 / constrained_intra=0 / bframes=8 / b_pyramid=2 / b_adapt=2 / b_bias=0 / direct=3 / weightb=1 / open_gop=0 / weightp=2 / keyint=250 / keyint_min=23 / scenecut=40 / intra_refresh=0 / rc_lookahead=60 / rc=crf / mbtree=1 / crf=14.0 / qcomp=0.60 / qpmin=0 / qpmax=69 / qpstep=4 / ip_ratio=1.40 / aq=3:0.60
Language                                 : English
Default                                  : Yes
Forced                                   : No

Audio
ID                                       : 2
Format                                   : AC-3
Format/Info                              : Audio Coding 3
Commercial name                          : Dolby Digital
Codec ID                                 : A_AC3
Duration                                 : 2 h 18 min
Bit rate mode                            : Constant
Bit rate                                 : 640 kb/s
Channel(s)                               : 6 channels
Channel layout                           : L R C LFE Ls Rs
Sampling rate                            : 48.0 kHz
Frame rate                               : 31.250 FPS (1536 SPF)
Compression mode                         : Lossy
Stream size                              : 632 MiB (17%)
Language                                 : Portuguese
Service kind                             : Complete Main
Default                                  : Yes
Forced                                   : No

Text #1
ID                                       : 3
Format                                   : UTF-8
Codec ID                                 : S_TEXT/UTF8
Codec ID/Info                            : UTF-8 Plain Text
Duration                                 : 2 h 11 min
Bit rate                                 : 16 b/s
Count of elements                        : 642
Stream size                              : 15.5 KiB (0%)
Title                                    : English forced
Language                                 : English
Default                                  : Yes
Forced                                   : Yes

Text #2
ID                                       : 4
Format                                   : PGS
Muxing mode                              : zlib
Codec ID                                 : S_HDMV/PGS
Codec ID/Info                            : Picture based subtitle format used on BDs/HD-DVDs
Duration                                 : 2 h 11 min
Bit rate                                 : 16.1 kb/s
Count of elements                        : 3701
Stream size                              : 15.1 MiB (0%)
Title                                    : English forced
Language                                 : English
Default                                  : No
Forced                                   : No

Text #3
ID                                       : 5
Format                                   : PGS
Muxing mode                              : zlib
Codec ID                                 : S_HDMV/PGS
Codec ID/Info                            : Picture based subtitle format used on BDs/HD-DVDs
Duration                                 : 2 h 16 min
Bit rate                                 : 24.0 kb/s
Count of elements                        : 3548
Stream size                              : 23.5 MiB (1%)
Title                                    : Japanese forced
Language                                 : Japanese
Default                                  : No
Forced                                   : No

Menu
00:00:00.000                             : en:00:00:00.000
00:16:25.443                             : en:00:16:25.443
00:29:46.118                             : en:00:29:46.118
00:48:27.738                             : en:00:48:27.738
01:05:29.759                             : en:01:05:29.759
01:23:53.612                             : en:01:23:53.612
01:35:55.959                             : en:01:35:55.959
01:48:37.469                             : en:01:48:37.469
02:02:50.154                             : en:02:02:50.154
02:14:20.678                             : en:02:14:20.678




                                                                                                                                                                                                        
                                                                                                                                                                                                                                                                                                                                                                                                                                                                                                                                                                                                                                                                                                                                                                                                                                                        
12a146467a097ccc37838b55c558c9ac.zip (37.42 KB)

回复

使用道具 举报

小黑屋|西西电影论坛 ( 闽ICP备160050789号-1 )

所有资源来自网络采集,如果侵犯了您的权益,请发邮件至 [email protected],立即清除相关链接

GMT+8, 2021-1-28 10:55 , Processed in 0.132532 second(s), 27 queries .

Powered by Discuz! X3.2

© 2001-2013 Comsenz Inc.

快速回复 返回顶部 返回列表