西西电影论坛

 找回密码
 立即注册

驯鹰者的崛起 The.Rising.Hawk.2019.720p.BluRay.x264-FREEMAN 7.32GB

[复制链接]

电影下载 发表于 2021-1-9 19:26:25 | 显示全部楼层 |阅读模式
-->
帖子完整标题:驯鹰者的崛起 The.Rising.Hawk.2019.720p.BluRay.x264-FREEMAN 7.32GB




◎译  名 驯鹰者的崛起/Zahar Berkut/Захар Беркут/上升的鹰
◎片  名 The Rising Hawk
◎年  代 2019
◎产  地 乌克兰,美国
◎类  别 剧情 / 动作 / 历史
◎语  言 乌克兰语
◎上映日期 2019-10-10(乌克兰)
◎IMDb评分  5.8/10 from 2563 users
◎  
◎豆瓣评分 5.7/10 from 416 users
◎ 
◎片  长 135分钟
◎导  演 阿希姆特·塞塔布拉耶夫 Akhtem Seitablaev / 约翰·韦恩 John Wynn
◎编  剧 里奇·罗纳特 Rich Ronat / 奥列格·马拉姆兹 Yaroslav Voytseshek
◎主  演 罗伯特·帕特里克 Robert Patrick
       帕皮·德雷顿 Poppy Drayton
       汤米·弗拉纳根 Tommy Flanagan
       艾莉森·杜迪 Alison Doody
       亚历克斯·马克尼科尔 Alex MacNicoll
       洛奇.迈尔斯 Rocky Myers
       奥利弗·特雷韦纳 Oliver Trevena
       阿琳娜·科瓦连科 Alina Kovalenko

◎标  签 战争 | 蒙古 | 乌克兰 | 中世纪 | 历史 | 2019 | 美国 | 美国电影

◎简  介

  1241年,成吉思汗的儿子们率领的蒙古大军西征,所到之处生灵涂炭。当他们抵达到达喀尔巴阡山脉时,当地猎人贝尔库特兄弟秘密进入营地蒙古并释放了被挟持人质。愤怒的蒙古将军决定采取报复措施,摧毁喀尔巴阡当地的居民定居点。当地人中的一个叛徒告诉蒙古人山里的秘密通道,但贝尔库特兄弟领导的一小群山地猎人有自己的计划来阻止蒙古人的袭击。根据伊凡·法兰科的中篇小说《扎克哈尔·伯库特》改编
Video
ID                                       : 1
Format                                   : AVC
Format/Info                              : Advanced Video Codec
Format profile                           :
Format settings                          : CABAC / 8 Ref Frames
Format settings, CABAC                   : Yes
Format settings, Reference frames        : 8 frames
Codec ID                                 : V_MPEG4/ISO/AVC
Duration                                 : 2 h 4 min
Bit rate                                 : 7 733 kb/s
Width                                    : 1 280 pixels
Height                                   : 572 pixels
Display aspect ratio                     : 2.25:1
Frame rate mode                          : Constant
Frame rate                               : 24.000 FPS
Color space                              : YUV
Chroma subsampling                       : 4:2:0
Bit depth                                : 8 bits
Scan type                                : Progressive
Bits/(Pixel*Frame)                       : 0.440
Stream size                              : 6.75 GiB (92%)
Writing library                          : x264 core 161 r3018 db0d417
Encoding settings                        : cabac=1 / ref=8 / deblock=1:-3:-3 / analyse=0x3:0x133 / me=umh / subme=9 / psy=1 / psy_rd=1.00:0.00 / mixed_ref=1 / me_range=16 / chroma_me=1 / trellis=2 / 8x8dct=1 / cqm=0 / deadzone=21,11 / fast_pskip=1 / chroma_qp_offset=-2 / threads=18 / lookahead_threads=1 / sliced_threads=0 / nr=0 / decimate=1 / interlaced=0 / bluray_compat=0 / constrained_intra=0 / bframes=3 / b_pyramid=2 / b_adapt=2 / b_bias=0 / direct=3 / weightb=1 / open_gop=0 / weightp=2 / keyint=250 / keyint_min=24 / scenecut=40 / intra_refresh=0 / rc_lookahead=60 / rc=crf / mbtree=1 / crf=17.0 / qcomp=0.60 / qpmin=0 / qpmax=69 / qpstep=4 / ip_ratio=1.40 / aq=3:0.80
Language                                 : English
Default                                  : Yes
Forced                                   : No
Color range                              : Limited
Matrix coefficients                      : BT.709

Audio
ID                                       : 2
Format                                   : AC-3
Format/Info                              : Audio Coding 3
Commercial name                          : Dolby Digital
Codec ID                                 : A_AC3
Duration                                 : 2 h 4 min
Bit rate mode                            : Constant
Bit rate                                 : 640 kb/s
Channel(s)                               : 6 channels
Channel layout                           : L R C LFE Ls Rs
Sampling rate                            : 48.0 kHz
Frame rate                               : 31.250 FPS (1536 SPF)
Compression mode                         : Lossy
Stream size                              : 572 MiB (8%)
Title                                    : AC3
Language                                 : English
Service kind                             : Complete Main
Default                                  : Yes
Forced                                   : No

Text #1
ID                                       : 3
Format                                   : UTF-8
Codec ID                                 : S_TEXT/UTF8
Codec ID/Info                            : UTF-8 Plain Text
Duration                                 : 1 h 45 min
Bit rate                                 : 2 b/s
Count of elements                        : 93
Stream size                              : 2.04 KiB (0%)
Title                                    : Forced
Language                                 : English
Default                                  : Yes
Forced                                   : No

Text #2
ID                                       : 4
Format                                   : PGS
Muxing mode                              : zlib
Codec ID                                 : S_HDMV/PGS
Codec ID/Info                            : Picture based subtitle format used on BDs/HD-DVDs
Duration                                 : 1 h 58 min
Bit rate                                 : 10.1 kb/s
Count of elements                        : 1594
Stream size                              : 8.58 MiB (0%)
Language                                 : German
Default                                  : No
Forced                                   : No

Menu
00:00:00.000                             : en:00:00:00.000
00:02:58.000                             : en:00:02:58.000
00:09:12.750                             : en:00:09:12.750
00:16:31.458                             : en:00:16:31.458
00:24:13.458                             : en:00:24:13.458
00:30:47.250                             : en:00:30:47.250
00:36:20.917                             : en:00:36:20.917
00:43:08.167                             : en:00:43:08.167
00:51:14.542                             : en:00:51:14.542
01:00:14.167                             : en:01:00:14.167
01:09:29.333                             : en:01:09:29.333
01:17:27.208                             : en:01:17:27.208
01:27:10.833                             : en:01:27:10.833
01:33:01.000                             : en:01:33:01.000
01:39:45.625                             : en:01:39:45.625
01:44:59.875                             : en:01:44:59.875
01:52:14.000                             : en:01:52:14.000
01:59:53.625                             : en:01:59:53.625




                                                                                                                                                                                                        
                                                                                                                                                                                                                                                                                                                                                                                                                                                                                                                                                                                                                                                                                                                                                                                                                                                        
236b3637b936ea924d8f521821ccb866.zip (37.28 KB)

回复

使用道具 举报

小黑屋|西西电影论坛 ( 闽ICP备160050789号-1 )

所有资源来自网络采集,如果侵犯了您的权益,请发邮件至 [email protected],立即清除相关链接

GMT+8, 2021-1-20 02:09 , Processed in 0.106909 second(s), 27 queries .

Powered by Discuz! X3.2

© 2001-2013 Comsenz Inc.

快速回复 返回顶部 返回列表