西西电影论坛

 找回密码
 立即注册

特别 The.Special.2020.720p.BluRay.x264-FREEMAN 1.44GB

[复制链接]

电影下载 发表于 2021-1-9 19:26:25 | 显示全部楼层 |阅读模式
-->
帖子完整标题:特别 The.Special.2020.720p.BluRay.x264-FREEMAN 1.44GB




◎译  名 特别
◎片  名 The Special
◎年  代 2020
◎产  地 美国
◎类  别 恐怖
◎语  言 英语
◎上映日期 2020-10-13(美国网络)
◎IMDb评分  4.6/10 from 367 users
◎  
◎豆瓣评分 /10 from 0 users
◎ 
◎片  长 94分钟
◎导  演 B·哈里森·史密斯 B. Harrison Smith
◎编  剧 Mark Steensland
◎主  演 戴夫·谢里登 Dave Sheridan
       莎拉·弗伦奇 Sarah French

◎标  签 恐怖 | 莉莉丝原创字幕 | 美国电影 | 恐怖惊悚悬疑重口血腥 | [歐美] | 3M稀影基地论坛 | 3M稀影基地

◎简  介

  Jerry Harford认为老婆背着自己外遇,他最好的朋友鼓励他以眼还眼,但却导致不堪的恐怖后果。Jerry开始陷入一个没有终点的超自然恶梦,好似暗黑版的《致命的吸引力》(Fatal Attraction)。
Video
ID                                       : 1
Format                                   : AVC
Format/Info                              : Advanced Video Codec
Format profile                           :
Format settings                          : CABAC / 8 Ref Frames
Format settings, CABAC                   : Yes
Format settings, Reference frames        : 8 frames
Codec ID                                 : V_MPEG4/ISO/AVC
Duration                                 : 1 h 34 min
Bit rate                                 : 1 548 kb/s
Width                                    : 1 280 pixels
Height                                   : 534 pixels
Display aspect ratio                     : 2.40:1
Frame rate mode                          : Constant
Frame rate                               : 23.976 (24000/1001/189150) FPS
Color space                              : YUV
Chroma subsampling                       : 4:2:0
Bit depth                                : 8 bits
Scan type                                : Progressive
Bits/(Pixel*Frame)                       : 0.094
Stream size                              : 1.02 GiB (71%)
Writing library                          : x264 core 161 r3018 db0d417
Encoding settings                        : cabac=1 / ref=8 / deblock=1:-3:-3 / analyse=0x3:0x133 / me=umh / subme=9 / psy=1 / psy_rd=1.00:0.00 / mixed_ref=1 / me_range=16 / chroma_me=1 / trellis=2 / 8x8dct=1 / cqm=0 / deadzone=21,11 / fast_pskip=1 / chroma_qp_offset=-2 / threads=17 / lookahead_threads=1 / sliced_threads=0 / nr=0 / decimate=1 / interlaced=0 / bluray_compat=0 / constrained_intra=0 / bframes=3 / b_pyramid=2 / b_adapt=2 / b_bias=0 / direct=3 / weightb=1 / open_gop=0 / weightp=2 / keyint=250 / keyint_min=23 / scenecut=40 / intra_refresh=0 / rc_lookahead=60 / rc=crf / mbtree=1 / crf=17.0 / qcomp=0.60 / qpmin=0 / qpmax=69 / qpstep=4 / ip_ratio=1.40 / aq=3:0.80
Language                                 : English
Default                                  : Yes
Forced                                   : No
Color range                              : Limited
Matrix coefficients                      : BT.709

Audio
ID                                       : 2
Format                                   : AC-3
Format/Info                              : Audio Coding 3
Commercial name                          : Dolby Digital
Codec ID                                 : A_AC3
Duration                                 : 1 h 34 min
Bit rate mode                            : Constant
Bit rate                                 : 640 kb/s
Channel(s)                               : 6 channels
Channel layout                           : L R C LFE Ls Rs
Sampling rate                            : 48.0 kHz
Frame rate                               : 31.250 FPS (1536 SPF)
Compression mode                         : Lossy
Stream size                              : 431 MiB (29%)
Title                                    : AC3
Language                                 : English
Service kind                             : Complete Main
Default                                  : Yes
Forced                                   : No

Menu
00:00:00.000                             : en:00:00:00.000
00:10:00.600                             : en:00:10:00.600
00:20:01.200                             : en:00:20:01.200
00:30:01.800                             : en:00:30:01.800
00:40:02.400                             : en:00:40:02.400
00:50:03.000                             : en:00:50:03.000
01:00:03.600                             : en:01:00:03.600
01:10:04.200                             : en:01:10:04.200
01:20:04.800                             : en:01:20:04.800
01:30:05.400                             : en:01:30:05.400




                                                                                                                                                                                                        
                                                                                                                                                                                                                                                                                                                                                                                                                                                                                                                                                                                                                                                                                                                                                                                                                                                        
6a79668ea6fb6587b32e6921d959d076.zip (15.05 KB)

回复

使用道具 举报

小黑屋|西西电影论坛 ( 闽ICP备160050789号-1 )

所有资源来自网络采集,如果侵犯了您的权益,请发邮件至 [email protected],立即清除相关链接

GMT+8, 2021-1-20 02:23 , Processed in 0.104437 second(s), 27 queries .

Powered by Discuz! X3.2

© 2001-2013 Comsenz Inc.

快速回复 返回顶部 返回列表