西西电影论坛

 找回密码
 立即注册

[BD-4K] 她自己 Herself.2020.2160p.AMZN.WEB-DL.x265.10bit.HDR10plus.DDP5.1-NOGRP 10...

[复制链接]

电影下载 发表于 2021-1-9 19:32:13 | 显示全部楼层 |阅读模式
-->
帖子完整标题:她自己 Herself.2020.2160p.AMZN.WEB-DL.x265.10bit.HDR10plus.DDP5.1-NOGRP 10.39GB




◎译  名 她自己
◎片  名 Herself
◎年  代 2020
◎产  地 爱尔兰,英国
◎类  别 剧情
◎语  言 英语
◎上映日期 2020-01(圣丹斯电影节) / 2021-01-08(美国网络)
◎IMDb评分  7/10 from 246 users
◎  
◎豆瓣评分 /10 from 0 users
◎ 
◎片  长 97分钟
◎导  演 菲利达·劳埃德 Phyllida Lloyd
◎编  剧 Malcolm Campbell
◎主  演 康勒斯·希尔 Conleth Hill
       哈丽特·瓦尔特 Harriet Walter
       凯茜·贝尔顿 Cathy Belton
       肖恩·达根 Sean Duggan
       克莱尔·邓恩 Clare Dunne
       弗兰克·普雷德加斯特 Frank Prendergast
       利兹·菲茨吉本 Liz Fitzgibbon
       Peter Gaynor
       Tina Kellegher
       罗肯·克兰尼奇 Lorcan Cranitch
       Ian Lloyd Anderson

◎标  签 2020 | 英国 | 女性 | Sundance | 英国电影 | 电影 | Phyllida_Lloyd | P&I

◎简  介

  Single-mother Sandra (Clare Dunne) escapes her abusive partner with her two young children, only to find herself trapped in temporary accommodation. After months of struggling, she draws inspiration from one of her daughter’s bedtime stories and hits upon the idea of self-building an affordable home. She finds an architect who provides her with plans and is offered land by Peggy (Harriet Walter), a woman she cleans for. Aido (Conleth Hill), a building contractor, appears willing to help too. But as her past rears its head, in the form of Gary (Ian Lloyd Anderson), her possessive ex, and as bureaucrats fight back against her independent spirit, will Sandra be able to rebuild her life from the ground up?

◎获奖情况

  第68届圣塞巴斯蒂安国际电影节 ?(2020)
  观众选择奖(提名) 菲利达·劳埃德
  
  第23届英国独立电影奖 ?(2020)
  最佳女主角(提名) 克莱尔·邓恩
Video
ID                                       : 1
Format                                   : HEVC
Format/Info                              : High Efficiency Video Coding
Format profile                           : Main @Main
HDR format                               : SMPTE ST 2094 App 4, Version 1, HDR10+ Profile B compatible
Codec ID                                 : V_MPEGH/ISO/HEVC
Duration                                 : 1 h 37 min
Bit rate                                 : 14.6 Mb/s
Width                                    : 3 840 pixels
Height                                   : 1 600 pixels
Display aspect ratio                     : 2.40:1
Frame rate mode                          : Constant
Frame rate                               : 23.976 (24000/1001/189150) FPS
Color space                              : YUV
Chroma subsampling                       : 4:2:0
Bit depth                                : 10 bits
Bits/(Pixel*Frame)                       : 0.099
Stream size                              : 9.96 GiB (96%)
Default                                  : Yes
Forced                                   : No
Color range                              : Limited
Color primaries                          : BT.2020
Transfer characteristics                 : PQ
Matrix coefficients                      : BT.2020 non-constant
Mastering display color primaries        : Display P3
Mastering display luminance              : min: 0.0001 cd/m2, max: 1000 cd/m2
Maximum Content Light Level              : 752 cd/m2
Maximum Frame-Average Light Level        : 145 cd/m2

Audio
ID                                       : 2
Format                                   : E-AC-3
Format/Info                              : Enhanced AC-3
Commercial name                          : Dolby Digital Plus
Codec ID                                 : A_EAC3
Duration                                 : 1 h 37 min
Bit rate mode                            : Constant
Bit rate                                 : 640 kb/s
Channel(s)                               : 6 channels
Channel layout                           : L R C LFE Ls Rs
Sampling rate                            : 48.0 kHz
Frame rate                               : 31.250 FPS (1536 SPF)
Compression mode                         : Lossy
Stream size                              : 448 MiB (4%)
Language                                 : English
Service kind                             : Complete Main
Default                                  : Yes
Forced                                   : No

Text #1
ID                                       : 3
Format                                   : UTF-8
Codec ID                                 : S_TEXT/UTF8
Codec ID/Info                            : UTF-8 Plain Text
Duration                                 : 1 h 36 min
Bit rate                                 : 74 b/s
Count of elements                        : 1764
Stream size                              : 52.5 KiB (0%)
Title                                    : English
Language                                 : English
Default                                  : Yes
Forced                                   : No

Text #2
ID                                       : 4
Format                                   : UTF-8
Codec ID                                 : S_TEXT/UTF8
Codec ID/Info                            : UTF-8 Plain Text
Duration                                 : 1 h 36 min
Bit rate                                 : 49 b/s
Count of elements                        : 1307
Stream size                              : 34.9 KiB (0%)
Title                                    : French Canadian
Language                                 : French
Default                                  : No
Forced                                   : No




                                                                                                                                                                                                        
                                                                                                                                                                                                                                                                                                                                                                                                                                                                                                                                                                                                                                                                                                                                                                                                                                                        
38d992af8365fb7fee923305f1f8c594.zip (52.68 KB)

回复

使用道具 举报

小黑屋|西西电影论坛 ( 闽ICP备160050789号-1 )

所有资源来自网络采集,如果侵犯了您的权益,请发邮件至 [email protected],立即清除相关链接

GMT+8, 2021-1-23 15:07 , Processed in 0.104308 second(s), 27 queries .

Powered by Discuz! X3.2

© 2001-2013 Comsenz Inc.

快速回复 返回顶部 返回列表