西西电影论坛

 找回密码
 立即注册

死神降临 Dead.Reckoning.2020.1080p.BluRay.x264.DTS-HD.MA.5.1-MT 9.31GB

[复制链接]

电影下载 发表于 2021-1-10 10:32:34 | 显示全部楼层 |阅读模式
-->
帖子完整标题:死神降临 Dead.Reckoning.2020.1080p.BluRay.x264.DTS-HD.MA.5.1-MT 9.31GB




◎译  名 死神降临/Dead Reckoning/圣坛岩石/祭坛石
◎片  名 Dead Reckoning
◎年  代 2020
◎产  地 美国
◎类  别 爱情 / 惊悚
◎语  言 英语
◎上映日期 2020-11-13(美国网络)
◎IMDb评分  3.9/10 from 285 users
◎  
◎豆瓣评分 /10 from 0 users
◎ 
◎导  演 安德泽·巴特科维卡 Andrzej Bartkowiak
◎主  演 K·J·阿帕 K.J. Apa
       英迪娅·埃斯利 India Eisley
       斯科特·阿金斯 Scott Adkins
       詹姆斯·瑞马尔 James Remar
       西德尼·帕克 Sydney Park
       阿纳斯塔西亚·齐卡那瓦 Anastasia Tsikhanava
       吉米·卡明斯 Jimmy Cummings
       艾莉·康纳尔 Ellie Cornell
       帕特里克·M·沃尔什 Patrick M. Walsh
       Christopher Foley

◎标  签 美国电影 | 美国 | 斯科特阿金斯 | 2020 | 电影 | 惊悚 | 詹姆斯·瑞马尔 | 犯罪

◎简  介

  蒂莉?加德纳(英迪娅·埃斯利 India Eisley 饰)的父母在一次坠机事故中丧生,这使得她萎靡不振。而南塔克特岛的司机尼科(K·J·阿帕 K.J. Apa 饰)的出现改变了这一切,并使得蒂莉与其坠入了爱河。但随着与尼科的相处,蒂莉渐渐发现他的身份似乎并不简单,并且与导致蒂莉父母双亡的坠机事件有着千丝万缕的联系。而另一方面。一心为蒂莉父亲复仇的联邦调查局探员坎特雷尔(詹姆斯·瑞马尔 James Remar 饰)的介入使得事情变得更加复杂。在南塔克特岛上,一场危机似乎蓄势待发......
Video
ID                                       : 1
Format                                   : AVC
Format/Info                              : Advanced Video Codec
Format profile                           :
Format settings                          : CABAC / 5 Ref Frames
Format settings, CABAC                   : Yes
Format settings, Reference frames        : 5 frames
Codec ID                                 : V_MPEG4/ISO/AVC
Duration                                 : 1 h 31 min
Bit rate                                 : 11.8 Mb/s
Width                                    : 1 920 pixels
Height                                   : 804 pixels
Display aspect ratio                     : 2.40:1
Frame rate mode                          : Constant
Frame rate                               : 23.976 (24000/1001/189150) FPS
Color space                              : YUV
Chroma subsampling                       : 4:2:0
Bit depth                                : 8 bits
Scan type                                : Progressive
Bits/(Pixel*Frame)                       : 0.318
Stream size                              : 7.51 GiB (81%)
Writing library                          : x264 core 157 r2938 2b00a84  Mod
Encoding settings                        : cabac=1 / ref=5 / deblock=1:-3:-3 / analyse=0x3:0x133 / me=umh / subme=10 / psy=1 / psy_rd=1.05:0.00 / mixed_ref=1 / me_range=32 / chroma_me=1 / trellis=2 / 8x8dct=1 / cqm=0 / deadzone=21,11 / fast_pskip=0 / chroma_qp_offset=-2 / threads=12 / lookahead_threads=2 / sliced_threads=0 / nr=0 / decimate=0 / interlaced=0 / bluray_compat=0 / constrained_intra=0 / bframes=8 / b_pyramid=2 / b_adapt=2 / b_bias=0 / direct=3 / weightb=1 / open_gop=0 / weightp=2 / keyint=250 / keyint_min=24 / scenecut=40 / intra_refresh=0 / rc_lookahead=250 / rc=crf / mbtree=0 / crf=16.8 / qcomp=0.60 / qpmin=0 / qpmax=69 / qpstep=4 / vbv_maxrate=62500 / vbv_bufsize=78125 / crf_max=0.0 / nal_hrd=none / filler=0 / ip_ratio=1.30 / pb_ratio=1.20 / aq=3:0.80
Language                                 : English
Default                                  : Yes
Forced                                   : No
Color range                              : Limited
Color primaries                          : BT.709
Matrix coefficients                      : BT.709

Audio
ID                                       : 2
Format                                   : DTS XLL
Format/Info                              : Digital Theater Systems
Commercial name                          : DTS-HD Master Audio
Codec ID                                 : A_DTS
Duration                                 : 1 h 31 min
Bit rate mode                            : Variable
Bit rate                                 : 2 782 kb/s
Channel(s)                               : 6 channels
Channel layout                           : C L R Ls Rs LFE
Sampling rate                            : 48.0 kHz
Frame rate                               : 93.750 FPS (512 SPF)
Bit depth                                : 24 bits
Compression mode                         : Lossless
Stream size                              : 1.78 GiB (19%)
Language                                 : English
Default                                  : Yes
Forced                                   : No

Text #1
ID                                       : 3
Format                                   : UTF-8
Codec ID                                 : S_TEXT/UTF8
Codec ID/Info                            : UTF-8 Plain Text
Duration                                 : 1 h 29 min
Bit rate                                 : 50 b/s
Count of elements                        : 1235
Stream size                              : 33.2 KiB (0%)
Title                                    : SRT
Language                                 : English
Default                                  : Yes
Forced                                   : No

Text #2
ID                                       : 4
Format                                   : PGS
Muxing mode                              : zlib
Codec ID                                 : S_HDMV/PGS
Codec ID/Info                            : Picture based subtitle format used on BDs/HD-DVDs
Duration                                 : 1 h 31 min
Bit rate                                 : 35.4 kb/s
Count of elements                        : 2088
Stream size                              : 23.1 MiB (0%)
Language                                 : English
Default                                  : No
Forced                                   : No

Menu
00:00:00.000                             : en:Chapter 01
00:09:02.625                             : en:Chapter 02
00:16:11.512                             : en:Chapter 03
00:24:31.387                             : en:Chapter 04
00:32:01.503                             : en:Chapter 05
00:41:06.798                             : en:Chapter 06
00:49:05.526                             : en:Chapter 07
00:57:01.793                             : en:Chapter 08
01:05:59.330                             : en:Chapter 09
01:14:14.992                             : en:Chapter 10
01:20:38.083                             : en:Chapter 11
01:26:13.502                             : en:Chapter 12




                                                                                                                                                                                                        
                                                                                                                                                                                                                                                                                                                                                                                                                                                                                                                                                                                                                                                                                                                                                                                                                                                        
c97f3f89f5878466ff3442bc369c5d59.zip (47.2 KB)

回复

使用道具 举报

小黑屋|西西电影论坛 ( 闽ICP备160050789号-1 )

所有资源来自网络采集,如果侵犯了您的权益,请发邮件至 [email protected],立即清除相关链接

GMT+8, 2021-1-20 02:23 , Processed in 0.111836 second(s), 27 queries .

Powered by Discuz! X3.2

© 2001-2013 Comsenz Inc.

快速回复 返回顶部 返回列表