西西电影论坛

 找回密码
 立即注册

[4K-原盘] 贼博士/老妇杀手团 The.Ladykillers.1955.OAR.2160p.BluRay.REMUX.HEVC.DT...

[复制链接]

电影下载 发表于 2021-1-10 11:18:46 | 显示全部楼层 |阅读模式
-->
帖子完整标题:贼博士/老妇杀手团 The.Ladykillers.1955.OAR.2160p.BluRay.REMUX.HEVC.DTS-HD.MA.2.0-FGT 45.95GB




◎译  名 贼博士/老妇杀手团/贵妇杀手
◎片  名 The Ladykillers
◎年  代 1955
◎产  地 英国
◎类  别 喜剧 / 惊悚 / 犯罪
◎语  言 英语
◎上映日期 1955-12-01
◎IMDb评分  7.7/10 from 26201 users
◎  
◎豆瓣评分 7.6/10 from 2592 users
◎ 
◎片  长 91 分钟
◎导  演 亚历山大·麦肯德里克 Alexander Mackendrick
◎编  剧 威廉·罗斯 William Rose / Jimmy O'Connor
◎主  演 亚历克·吉尼斯 Alec Guinness
       西塞尔·帕克 Cecil Parker
       赫伯特·罗姆 Herbert Lom
       彼得·塞勒斯 Peter Sellers
       凯蒂·约翰逊 Katie Johnson
       尤安·罗伯茨 Ewan Roberts
       斯特拉特福德·约翰斯 Stratford Johns
       Jack Melford
       Arthur Mullard
       尼尔·威尔森 Neil Wilson
       Peter Williams
       菲利普·斯坦顿 Philip Stainton
       山姆·基德 Sam Kydd
       弗雷德·格里菲思 Fred Griffiths
       伊迪·马丁 Edie Martin
       Danny Green
       弗兰基·豪尔德 Frankie Howerd
       杰克·华纳 Jack Warner
       Kenneth Connor
       Hélène Burls
       Vincent Holman
       Harold Goodwin

◎标  签 英国 | 喜剧 | 犯罪 | 黑色幽默 | 英国电影 | 1950s | 1955 | AlexanderMackendrick

◎简  介

  怀博菲丝太太在警察局自称见到不明飞行物被警察赶了出去。
  
  一个乐队跑去了怀博菲丝太太的住所,他们希望能借住在这里创造一首新歌。其实他们正计划抢劫运钞车,他们在怀博菲丝太太的公寓筹备着整个计划,而怀博菲丝太太还蒙在鼓里。
  
  当他们成功的抢劫了运钞车之后,事情也终于让怀博菲丝太太发现了,他们决定将怀博菲丝太太杀掉一了百了,但他们却都因为不同的原因相继死去。
  
  老太太去警察局报案,警察却因为之前的“不明飞行物事件”完全否定怀博菲丝太太的说法,最后那笔钱全成了老太太一个人的。
  
  讲述一群智商不高的盗贼想不到会栽在一个小老太太手里。居住在伦敦的怀博菲丝太太到警察局自称见到不明飞行物,被警察赶了出去。一个乐队来到菲丝太太的住所租房子,说要在这里搞创作。其实他们是一伙窃贼,正计划抢劫运钞车,要在菲丝太太的公寓做准备,而她还蒙在鼓里。当他们抢劫成功后,菲丝太太也终于发现了真相,于是他们决定将菲丝太太灭口,然而这个老太太似乎不是看上去那么好对付,窃贼们全都因为不同的原因相继死去。老太太去警局报案,警察却因为之前的“不明飞行物事件”完全否定菲丝太太的说法,最后那笔钱全成了老太太一个人的。

◎获奖情况

  第29届奥斯卡金像奖 ?(1957)
  最佳原创剧本(提名) 威廉·罗斯
Video
ID                                       : 1
Format                                   : HEVC
Format/Info                              : High Efficiency Video Coding
Format profile                           : Main @High
HDR format                               : SMPTE ST 2086, HDR10 compatible
Codec ID                                 : V_MPEGH/ISO/HEVC
Duration                                 : 1 h 30 min
Bit rate                                 : 70.2 Mb/s
Width                                    : 3 840 pixels
Height                                   : 2 160 pixels
Display aspect ratio                     : 16:9
Frame rate mode                          : Constant
Frame rate                               : 24.000 FPS
Color space                              : YUV
Chroma subsampling                       : 4:2:0 (Type 2)
Bit depth                                : 10 bits
Bits/(Pixel*Frame)                       : 0.353
Stream size                              : 44.5 GiB (97%)
Language                                 : English
Default                                  : Yes
Forced                                   : No
Color range                              : Limited
Color primaries                          : BT.2020
Transfer characteristics                 : PQ
Matrix coefficients                      : BT.2020 non-constant
Mastering display color primaries        : BT.2020
Mastering display luminance              : min: 0.0001 cd/m2, max: 1000 cd/m2
SEI_rbsp_stop_one_bit                    : Missing

Audio #1
ID                                       : 2
Format                                   : DTS XLL
Format/Info                              : Digital Theater Systems
Commercial name                          : DTS-HD Master Audio
Codec ID                                 : A_DTS
Duration                                 : 1 h 30 min
Bit rate mode                            : Variable
Bit rate                                 : 1 489 kb/s
Channel(s)                               : 2 channels
Channel layout                           : L R
Sampling rate                            : 48.0 kHz
Frame rate                               : 93.750 FPS (512 SPF)
Bit depth                                : 24 bits
Compression mode                         : Lossless
Stream size                              : 966 MiB (2%)
Title                                    : DTS-HD MA 2.0
Language                                 : English
Default                                  : Yes
Forced                                   : No

Audio #2
ID                                       : 3
Format                                   : AC-3
Format/Info                              : Audio Coding 3
Commercial name                          : Dolby Digital
Codec ID                                 : A_AC3
Duration                                 : 1 h 30 min
Bit rate mode                            : Constant
Bit rate                                 : 640 kb/s
Channel(s)                               : 2 channels
Channel layout                           : L R
Sampling rate                            : 48.0 kHz
Frame rate                               : 31.250 FPS (1536 SPF)
Compression mode                         : Lossy
Stream size                              : 415 MiB (1%)
Title                                    : DD 2.0
Language                                 : English
Service kind                             : Complete Main
Default                                  : No
Forced                                   : No

Audio #3
ID                                       : 4
Format                                   : AC-3
Format/Info                              : Audio Coding 3
Commercial name                          : Dolby Digital
Codec ID                                 : A_AC3
Duration                                 : 1 h 30 min
Bit rate mode                            : Constant
Bit rate                                 : 192 kb/s
Channel(s)                               : 2 channels
Channel layout                           : L R
Sampling rate                            : 48.0 kHz
Frame rate                               : 31.250 FPS (1536 SPF)
Compression mode                         : Lossy
Stream size                              : 125 MiB (0%)
Title                                    : DD 2.0
Language                                 : English
Service kind                             : Complete Main
Default                                  : No
Forced                                   : No

Text #1
ID                                       : 5
Format                                   : UTF-8
Codec ID                                 : S_TEXT/UTF8
Codec ID/Info                            : UTF-8 Plain Text
Duration                                 : 1 h 28 min
Bit rate                                 : 63 b/s
Count of elements                        : 1092
Stream size                              : 40.8 KiB (0%)
Title                                    : English-SRT
Language                                 : English
Default                                  : Yes
Forced                                   : No

Text #2
ID                                       : 6
Format                                   : PGS
Muxing mode                              : zlib
Codec ID                                 : S_HDMV/PGS
Codec ID/Info                            : Picture based subtitle format used on BDs/HD-DVDs
Duration                                 : 1 h 28 min
Bit rate                                 : 41.0 kb/s
Count of elements                        : 2346
Stream size                              : 25.9 MiB (0%)
Title                                    : English-PGS
Language                                 : English
Default                                  : No
Forced                                   : No

Text #3
ID                                       : 7
Format                                   : PGS
Muxing mode                              : zlib
Codec ID                                 : S_HDMV/PGS
Codec ID/Info                            : Picture based subtitle format used on BDs/HD-DVDs
Duration                                 : 1 h 30 min
Bit rate                                 : 61.1 kb/s
Count of elements                        : 3192
Stream size                              : 39.3 MiB (0%)
Title                                    : English-SDH-PGS
Language                                 : English
Default                                  : No
Forced                                   : No

Menu
00:00:00.000                             : :Chapter 01
00:08:00.208                             : :Chapter 02
00:18:14.375                             : :Chapter 03
00:25:27.333                             : :Chapter 04
00:31:47.458                             : :Chapter 05
00:38:20.292                             : :Chapter 06
00:45:58.958                             : :Chapter 07
00:52:51.250                             : :Chapter 08
01:04:29.667                             : :Chapter 09
01:10:36.500                             : :Chapter 10
01:18:22.750                             : :Chapter 11
01:27:37.083                             : :Chapter 12




                                                                                                                                                                                                        
                                                                                                                                                                                                                                                                                                                                                                                                                                                                                                                                                                                                                                                                                                                                                                                                                                                        
5e28c0c717e2832d7a4f621b75c10f3b.zip (115.58 KB)

回复

使用道具 举报

小黑屋|西西电影论坛 ( 闽ICP备160050789号-1 )

所有资源来自网络采集,如果侵犯了您的权益,请发邮件至 [email protected],立即清除相关链接

GMT+8, 2021-1-28 10:15 , Processed in 0.107768 second(s), 27 queries .

Powered by Discuz! X3.2

© 2001-2013 Comsenz Inc.

快速回复 返回顶部 返回列表