西西电影论坛

 找回密码
 立即注册

萨维奇 Savage.2019.1080p.BluRay.x264.DTS-MT 20.99GB

[复制链接]

电影下载 发表于 2021-1-12 11:18:37 | 显示全部楼层 |阅读模式
-->
帖子完整标题:萨维奇 Savage.2019.1080p.BluRay.x264.DTS-MT 20.99GB




◎译  名 萨维奇
◎片  名 Savage
◎年  代 2019
◎产  地 新西兰
◎类  别 
◎语  言 英语
◎上映日期 2019-10-08(釜山电影节) / 2020-08-27(澳大利亚)
◎IMDb评分  6.4/10 from 699 users
◎  
◎豆瓣评分 6.0/10 from 213 users
◎ 
◎片  长 101分钟
◎导  演 Sam Kelly / 山姆·凯利 Sam Kelly
◎编  剧 山姆·凯利 Sam Kelly
◎主  演 杰克·莱恩 Jake Ryan
       约翰·图伊 John Tui
       切尔西·普雷斯顿·克雷福德 Chelsie Preston Crayford

◎标  签 新西兰 | 犯罪 | 剧情 | 新西兰电影 | 上海电影节 | 2019 | SIFF | PB-BusanD未来景象单元

◎简  介

  故事背景受30年来新西兰街头黑帮的真实故事的启发,讲述萨维奇在丹尼从一个男孩成长为一个帮派的暴力执行者的过程中,经历了生命中的三个反抗时刻。
Video
ID                                       : 1
Format                                   : AVC
Format/Info                              : Advanced Video Codec
Format profile                           :
Format settings                          : CABAC / 4 Ref Frames
Format settings, CABAC                   : Yes
Format settings, Reference frames        : 4 frames
Codec ID                                 : V_MPEG4/ISO/AVC
Duration                                 : 1 h 39 min
Bit rate                                 : 28.7 Mb/s
Width                                    : 1 920 pixels
Height                                   : 1 038 pixels
Display aspect ratio                     : 1.85:1
Frame rate mode                          : Constant
Frame rate                               : 24.000 FPS
Color space                              : YUV
Chroma subsampling                       : 4:2:0
Bit depth                                : 8 bits
Scan type                                : Progressive
Bits/(Pixel*Frame)                       : 0.600
Stream size                              : 19.9 GiB (95%)
Writing library                          : x264 core 157 r2938 2b00a84  Mod
Encoding settings                        : cabac=1 / ref=4 / deblock=1:-3:-3 / analyse=0x3:0x133 / me=umh / subme=10 / psy=1 / psy_rd=1.05:0.00 / mixed_ref=1 / me_range=32 / chroma_me=1 / trellis=2 / 8x8dct=1 / cqm=0 / deadzone=21,11 / fast_pskip=0 / chroma_qp_offset=-2 / threads=12 / lookahead_threads=2 / sliced_threads=0 / nr=0 / decimate=0 / interlaced=0 / bluray_compat=0 / constrained_intra=0 / bframes=8 / b_pyramid=2 / b_adapt=2 / b_bias=0 / direct=3 / weightb=1 / open_gop=0 / weightp=2 / keyint=250 / keyint_min=24 / scenecut=40 / intra_refresh=0 / rc_lookahead=250 / rc=crf / mbtree=0 / crf=16.8 / qcomp=0.60 / qpmin=0 / qpmax=69 / qpstep=4 / vbv_maxrate=62500 / vbv_bufsize=78125 / crf_max=0.0 / nal_hrd=none / filler=0 / ip_ratio=1.30 / pb_ratio=1.20 / aq=3:0.80
Language                                 : English
Default                                  : Yes
Forced                                   : No
Color range                              : Limited
Color primaries                          : BT.709
Matrix coefficients                      : BT.709

Audio
ID                                       : 2
Format                                   : DTS
Format/Info                              : Digital Theater Systems
Codec ID                                 : A_DTS
Duration                                 : 1 h 39 min
Bit rate mode                            : Constant
Bit rate                                 : 1 509 kb/s
Channel(s)                               : 6 channels
Channel layout                           : C L R Ls Rs LFE
Sampling rate                            : 48.0 kHz
Frame rate                               : 93.750 FPS (512 SPF)
Bit depth                                : 24 bits
Compression mode                         : Lossy
Stream size                              : 1.05 GiB (5%)
Language                                 : English
Default                                  : Yes
Forced                                   : No

Text
ID                                       : 3
Format                                   : UTF-8
Codec ID                                 : S_TEXT/UTF8
Codec ID/Info                            : UTF-8 Plain Text
Duration                                 : 1 h 31 min
Bit rate                                 : 23 b/s
Count of elements                        : 669
Stream size                              : 16.0 KiB (0%)
Title                                    : SRT
Language                                 : English
Default                                  : Yes
Forced                                   : No

Menu
00:00:00.000                             : en:Chapter 01
00:02:15.625                             : en:Chapter 02
00:14:49.375                             : en:Chapter 03
00:21:50.542                             : en:Chapter 04
00:31:11.875                             : en:Chapter 05
00:40:44.750                             : en:Chapter 06
00:48:47.000                             : en:Chapter 07
00:58:15.375                             : en:Chapter 08
01:07:21.208                             : en:Chapter 09
01:19:01.208                             : en:Chapter 10
01:30:27.875                             : en:Chapter 11
01:34:33.958                             : en:Chapter 12




                                                                                                                                                                                                        
                                                                                                                                                                                                                                                                                                                                                                                                                                                                                                                                                                                                                                                                                                                                                                                                                                                        
2264007eb08fa160a00875bcf14185e4.zip (53.08 KB)

回复

使用道具 举报

小黑屋|西西电影论坛 ( 闽ICP备160050789号-1 )

所有资源来自网络采集,如果侵犯了您的权益,请发邮件至 [email protected],立即清除相关链接

GMT+8, 2021-1-20 02:36 , Processed in 0.121183 second(s), 27 queries .

Powered by Discuz! X3.2

© 2001-2013 Comsenz Inc.

快速回复 返回顶部 返回列表