西西电影论坛

 找回密码
 立即注册

萨维奇 Savage.2019.1080p.BluRay.x264-PFa 14.80GB

[复制链接]

电影下载 发表于 2021-1-12 11:18:37 | 显示全部楼层 |阅读模式
-->
帖子完整标题:萨维奇 Savage.2019.1080p.BluRay.x264-PFa 14.80GB




◎译  名 萨维奇
◎片  名 Savage
◎年  代 2019
◎产  地 新西兰
◎类  别 
◎语  言 英语
◎上映日期 2019-10-08(釜山电影节) / 2020-08-27(澳大利亚)
◎IMDb评分  6.3/10 from 724 users
◎  
◎豆瓣评分 6.0/10 from 214 users
◎ 
◎片  长 101分钟
◎导  演 Sam Kelly / 山姆·凯利 Sam Kelly
◎编  剧 山姆·凯利 Sam Kelly
◎主  演 杰克·莱恩 Jake Ryan
       约翰·图伊 John Tui
       切尔西·普雷斯顿·克雷福德 Chelsie Preston Crayford

◎标  签 新西兰 | 犯罪 | 剧情 | 新西兰电影 | 上海电影节 | 2019 | SIFF | PB-BusanD未来景象单元

◎简  介

  故事背景受30年来新西兰街头黑帮的真实故事的启发,讲述萨维奇在丹尼从一个男孩成长为一个帮派的暴力执行者的过程中,经历了生命中的三个反抗时刻。
Video
ID                                       : 1
Format                                   : AVC
Format/Info                              : Advanced Video Codec
Format profile                           :
Format settings                          : CABAC / 4 Ref Frames
Format settings, CABAC                   : Yes
Format settings, Reference frames        : 4 frames
Codec ID                                 : V_MPEG4/ISO/AVC
Duration                                 : 1 h 39 min
Bit rate                                 : 17.7 Mb/s
Width                                    : 1 920 pixels
Height                                   : 1 036 pixels
Display aspect ratio                     : 1.85:1
Frame rate mode                          : Constant
Frame rate                               : 24.000 FPS
Color space                              : YUV
Chroma subsampling                       : 4:2:0
Bit depth                                : 8 bits
Scan type                                : Progressive
Bits/(Pixel*Frame)                       : 0.370
Stream size                              : 12.3 GiB (83%)
Writing library                          : x264 core 157 r2969 d4099dd
Encoding settings                        : cabac=1 / ref=4 / deblock=1:-3:-3 / analyse=0x3:0x133 / me=umh / subme=9 / psy=1 / psy_rd=1.00:0.00 / mixed_ref=1 / me_range=16 / chroma_me=1 / trellis=2 / 8x8dct=1 / cqm=0 / deadzone=21,11 / fast_pskip=1 / chroma_qp_offset=-2 / threads=12 / lookahead_threads=1 / sliced_threads=0 / nr=0 / decimate=1 / interlaced=0 / bluray_compat=0 / constrained_intra=0 / bframes=3 / b_pyramid=2 / b_adapt=2 / b_bias=0 / direct=3 / weightb=1 / open_gop=0 / weightp=2 / keyint=250 / keyint_min=24 / scenecut=40 / intra_refresh=0 / rc_lookahead=60 / rc=crf / mbtree=1 / crf=17.0 / qcomp=0.60 / qpmin=0 / qpmax=69 / qpstep=4 / ip_ratio=1.40 / aq=3:0.70
Language                                 : English
Default                                  : Yes
Forced                                   : No

Audio
ID                                       : 2
Format                                   : DTS XLL
Format/Info                              : Digital Theater Systems
Commercial name                          : DTS-HD Master Audio
Codec ID                                 : A_DTS
Duration                                 : 1 h 39 min
Bit rate mode                            : Variable
Bit rate                                 : 3 653 kb/s
Channel(s)                               : 6 channels
Channel layout                           : C L R Ls Rs LFE
Sampling rate                            : 48.0 kHz
Frame rate                               : 93.750 FPS (512 SPF)
Bit depth                                : 24 bits
Compression mode                         : Lossless
Stream size                              : 2.54 GiB (17%)
Language                                 : English
Default                                  : Yes
Forced                                   : No

Text
ID                                       : 3
Format                                   : PGS
Muxing mode                              : zlib
Codec ID                                 : S_HDMV/PGS
Codec ID/Info                            : Picture based subtitle format used on BDs/HD-DVDs
Duration                                 : 1 h 34 min
Bit rate                                 : 12.1 kb/s
Count of elements                        : 1476
Stream size                              : 8.16 MiB (0%)
Language                                 : English
Default                                  : Yes
Forced                                   : No




                                                                                                                                                                                                        
                                                                                                                                                                                                                                                                                                                                                                                                                                                                                                                                                                                                                                                                                                                                                                                                                                                        
9b63e56e7fa0bd65d1f3a65e69b8b5c9.zip (74.69 KB)

回复

使用道具 举报

小黑屋|西西电影论坛 ( 闽ICP备160050789号-1 )

所有资源来自网络采集,如果侵犯了您的权益,请发邮件至 [email protected],立即清除相关链接

GMT+8, 2021-1-23 08:54 , Processed in 0.125406 second(s), 27 queries .

Powered by Discuz! X3.2

© 2001-2013 Comsenz Inc.

快速回复 返回顶部 返回列表