西西电影论坛

 找回密码
 立即注册

天际浩劫3 Skylines.2020.720p.BluRay.x264.DTS-MT 4.16GB

[复制链接]

电影下载 发表于 2021-1-12 11:24:17 | 显示全部楼层 |阅读模式
-->
帖子完整标题:天际浩劫3 Skylines.2020.720p.BluRay.x264.DTS-MT 4.16GB




◎译  名 天际浩劫3/Skylin3s
◎片  名 Skylines
◎年  代 2020
◎产  地 美国
◎类  别 动作 / 科幻
◎语  言 英语
◎上映日期 2020-10-25(FrightFest) / 2020-12-18(美国)
◎IMDb评分  4.7/10 from 2279 users
◎  
◎豆瓣评分 4.7/10 from 696 users
◎ 
◎导  演 连姆·O·达诺 Liam O'Donnell
◎编  剧 连姆·O·达诺 Liam O'Donnell
◎主  演 琳赛·摩根 Lindsey Morgan
       罗娜·迈特拉 Rhona Mitra
       丹尼尔·伯哈特 Daniel Bernhardt
       亚历山大·希迪格 Alexander Siddig
       詹姆斯·科兹莫 James Cosmo
       乔纳森·霍华德 Jonathan Howard
       列娃·安德烈瓦伊达 Ieva Andrejevaite
       杰罗米菲茨杰罗德 Jeremy Fitzgerald
       吉德雷·莫基利安妮特 Giedre Mockeliunaite
       Cha-Lee Yoon

◎标  签 科幻 | 美国 | 灾难 | 2020 | 科幻电影 | 续集 | 电影 | 动作

◎简  介

  经美国《银幕》杂志证实,《天际浩劫》的第三部正在确定投资方并且已经敲定了片名。报道还证实第二部的导演连姆·O·达诺很可能继续以导演和制片人的身份开始第三部续集的制作。演员阵容有待公布,目前消息称第二部主演弗兰科·格里罗以及其中曾出演《突袭》系列的伊科·乌艾斯和雅彦·鲁伊安不太可能回归。
Video
ID                                       : 1
Format                                   : AVC
Format/Info                              : Advanced Video Codec
Format profile                           :
Format settings                          : CABAC / 12 Ref Frames
Format settings, CABAC                   : Yes
Format settings, Reference frames        : 12 frames
Codec ID                                 : V_MPEG4/ISO/AVC
Duration                                 : 1 h 53 min
Bit rate                                 : 3 749 kb/s
Width                                    : 1 280 pixels
Height                                   : 536 pixels
Display aspect ratio                     : 2.40:1
Frame rate mode                          : Constant
Frame rate                               : 23.976 (24000/1001/189150) FPS
Color space                              : YUV
Chroma subsampling                       : 4:2:0
Bit depth                                : 8 bits
Scan type                                : Progressive
Bits/(Pixel*Frame)                       : 0.228
Stream size                              : 2.97 GiB (71%)
Writing library                          : x264 core 157 r2938 2b00a84  Mod
Encoding settings                        : cabac=1 / ref=12 / deblock=1:-3:-3 / analyse=0x3:0x133 / me=umh / subme=10 / psy=1 / psy_rd=1.05:0.00 / mixed_ref=1 / me_range=32 / chroma_me=1 / trellis=2 / 8x8dct=1 / cqm=0 / deadzone=21,11 / fast_pskip=0 / chroma_qp_offset=-2 / threads=12 / lookahead_threads=2 / sliced_threads=0 / nr=0 / decimate=0 / interlaced=0 / bluray_compat=0 / constrained_intra=0 / bframes=8 / b_pyramid=2 / b_adapt=2 / b_bias=0 / direct=3 / weightb=1 / open_gop=0 / weightp=2 / keyint=250 / keyint_min=24 / scenecut=40 / intra_refresh=0 / rc_lookahead=250 / rc=crf / mbtree=0 / crf=16.8 / qcomp=0.60 / qpmin=0 / qpmax=69 / qpstep=4 / vbv_maxrate=62500 / vbv_bufsize=78125 / crf_max=0.0 / nal_hrd=none / filler=0 / ip_ratio=1.30 / pb_ratio=1.20 / aq=3:0.80
Language                                 : English
Default                                  : Yes
Forced                                   : No
Color range                              : Limited
Color primaries                          : BT.709
Matrix coefficients                      : BT.709

Audio
ID                                       : 2
Format                                   : DTS
Format/Info                              : Digital Theater Systems
Codec ID                                 : A_DTS
Duration                                 : 1 h 53 min
Bit rate mode                            : Constant
Bit rate                                 : 1 509 kb/s
Channel(s)                               : 6 channels
Channel layout                           : C L R Ls Rs LFE
Sampling rate                            : 48.0 kHz
Frame rate                               : 93.750 FPS (512 SPF)
Bit depth                                : 24 bits
Compression mode                         : Lossy
Stream size                              : 1.19 GiB (29%)
Language                                 : English
Default                                  : Yes
Forced                                   : No

Text
ID                                       : 3
Format                                   : UTF-8
Codec ID                                 : S_TEXT/UTF8
Codec ID/Info                            : UTF-8 Plain Text
Duration                                 : 1 h 44 min
Bit rate                                 : 38 b/s
Count of elements                        : 1021
Stream size                              : 29.4 KiB (0%)
Language                                 : English
Default                                  : Yes
Forced                                   : No

Menu
00:00:00.000                             : en:Chapter 01
00:17:53.614                             : en:Chapter 02
00:32:07.843                             : en:Chapter 03
00:51:53.485                             : en:Chapter 04
01:13:12.179                             : en:Chapter 05
01:34:54.272                             : en:Chapter 06




                                                                                                                                                                                                        
                                                                                                                                                                                                                                                                                                                                                                                                                                                                                                                                                                                                                                                                                                                                                                                                                                                        
1bc6bebab40c4e1766cb2807e347f1e4.zip (42.27 KB)

回复

使用道具 举报

小黑屋|西西电影论坛 ( 闽ICP备160050789号-1 )

所有资源来自网络采集,如果侵犯了您的权益,请发邮件至 [email protected],立即清除相关链接

GMT+8, 2021-1-20 01:39 , Processed in 0.111313 second(s), 27 queries .

Powered by Discuz! X3.2

© 2001-2013 Comsenz Inc.

快速回复 返回顶部 返回列表