西西电影论坛

 找回密码
 立即注册

[BD-4K] 致命女郎/蛇蝎美人 Fatale.2020.2160p.WEB.H265-NAISU 11.10GB

[复制链接]

电影下载 发表于 2021-1-12 11:29:46 | 显示全部楼层 |阅读模式
-->
帖子完整标题:致命女郎/蛇蝎美人 Fatale.2020.2160p.WEB.H265-NAISU 11.10GB




◎译  名 致命女郎/蛇蝎美人
◎片  名 Fatale
◎年  代 2020
◎产  地 美国
◎类  别 惊悚
◎语  言 英语
◎上映日期 2020-12-18(美国)
◎IMDb评分  4.8/10 from 957 users
◎  
◎豆瓣评分 /10 from 0 users
◎ 
◎片  长 102分钟
◎导  演 德翁·泰勒 Deon Taylor
◎编  剧 戴维·朗格利 David Loughery
◎主  演 希拉里·斯万克 Hilary Swank
       迈克尔·伊雷 Michael Ealy
       迈克·柯尔特 Mike Colter
       卡莉·霍克 Kali Hawk
       丹尼·皮诺 Danny Pino
       达马里斯·刘易斯 Damaris Lewis
       萨姆·戴利 Sam Daly
       杰弗里·欧文斯 Geoffrey Owens
       大卫·霍夫林 David Hoflin
       奥克莉·布尔 Oakley Bull
       达拉斯·钱德勒 Dallas Chandler
       泰里恩·特纳 Tyrin Turner
       朱莉安娜·唐纳德 Juliana Donald
       莱克萨·格鲁克 Lexa Gluck
       丹尼丝·道丝 Denise Dowse
       凯瑞·威斯特科特 Kerry Westcott
       Ian Stanley
       Sasha Golberg

◎标  签 2020 | 美国 | 电影 | 悬疑 | 惊悚 | 四点一 | 剧情 | 其他电影

◎简  介

  影片讲述一个成功的体育经纪人达伦(迈克尔·伊雷饰),当他被卷入由一个身份存疑、不知羞耻但行为坚定的侦探(希拉里·斯万克饰)领导的警方调查中,他原本的完美生活渐渐消失……
Video
ID                                       : 1
Format                                   : HEVC
Format/Info                              : High Efficiency Video Coding
Format profile                           : @Main
Codec ID                                 : V_MPEGH/ISO/HEVC
Duration                                 : 1 h 42 min
Bit rate                                 : 14.8 Mb/s
Width                                    : 3 840 pixels
Height                                   : 2 160 pixels
Display aspect ratio                     : 16:9
Frame rate mode                          : Constant
Frame rate                               : 23.976 (24000/1001/189150) FPS
Color space                              : YUV
Chroma subsampling                       : 4:2:0
Bit depth                                : 8 bits
Bits/(Pixel*Frame)                       : 0.074
Stream size                              : 10.6 GiB (96%)
Default                                  : Yes
Forced                                   : No
Color range                              : Limited
Color primaries                          : BT.709
Transfer characteristics                 : BT.709
Matrix coefficients                      : BT.709

Audio
ID                                       : 2
Format                                   : E-AC-3
Format/Info                              : Enhanced AC-3
Commercial name                          : Dolby Digital Plus
Codec ID                                 : A_EAC3
Duration                                 : 1 h 42 min
Bit rate mode                            : Constant
Bit rate                                 : 256 kb/s
Channel(s)                               : 6 channels
Channel layout                           : L R C LFE Ls Rs
Sampling rate                            : 48.0 kHz
Frame rate                               : 31.250 FPS (1536 SPF)
Compression mode                         : Lossy
Stream size                              : 188 MiB (2%)
Language                                 : English
Service kind                             : Complete Main
Default                                  : Yes
Forced                                   : No

Text
ID                                       : 3
Format                                   : UTF-8
Codec ID                                 : S_TEXT/UTF8
Codec ID/Info                            : UTF-8 Plain Text
Language                                 : English
Default                                  : No
Forced                                   : No




                                                                                                                                                                                                        
                                                                                                                                                                                                                                                                                                                                                                                                                                                                                                                                                                                                                                                                                                                                                                                                                                                        
25d5620bdf6b85cca4b7914248843d75.zip (56.14 KB)

回复

使用道具 举报

小黑屋|西西电影论坛 ( 闽ICP备160050789号-1 )

所有资源来自网络采集,如果侵犯了您的权益,请发邮件至 [email protected],立即清除相关链接

GMT+8, 2021-1-23 16:44 , Processed in 0.133224 second(s), 27 queries .

Powered by Discuz! X3.2

© 2001-2013 Comsenz Inc.

快速回复 返回顶部 返回列表